<?xml version="1.0" standalone="no"?>
<!DOCTYPE svg PUBLIC "-//W3C//DTD SVG 1.1//EN" "http://www.w3.org/Graphics/SVG/1.1/DTD/svg11.dtd" >
<svg xmlns="http://www.w3.org/2000/svg" xmlns:xlink="http://www.w3.org/1999/xlink" version="1.1">
<metadata>
Created by FontForge 20170731 at Tue Dec 12 13:38:28 2023
 By Aleksey,,,
Copyright (c) 1985, 1987, 1989, 1990, 1997 Adobe Systems Incorporated.  All Rights Reserved.Helvetica is a trademark of Linotype-Hell AG and/or its subsidiaries.
</metadata>
<defs>
<font id="HelveticaCE" horiz-adv-x="1138" >
  <font-face 
    font-family="Helvetica CE"
    font-weight="400"
    font-stretch="normal"
    units-per-em="2048"
    panose-1="4 0 5 0 0 0 0 0 0 0"
    ascent="1587"
    descent="-461"
    x-height="1071"
    cap-height="1470"
    bbox="-63 -461 2048 1907"
    underline-thickness="102"
    underline-position="-307"
    unicode-range="U+0020-25CA"
  />
<missing-glyph horiz-adv-x="569" 
 />
    <glyph glyph-name=".notdef" horiz-adv-x="569" 
 />
    <glyph glyph-name=".null" horiz-adv-x="0" 
 />
    <glyph glyph-name="nonmarkingreturn" horiz-adv-x="682" 
 />
    <glyph glyph-name="space" unicode=" " horiz-adv-x="569" 
 />
    <glyph glyph-name="space" unicode="&#xa0;" horiz-adv-x="569" 
 />
    <glyph glyph-name="exclam" unicode="!" horiz-adv-x="569" 
d="M383 209v-209h-199v209h199zM334 350h-101l-49 635v485h199v-485z" />
    <glyph glyph-name="quotedbl" unicode="&#x22;" horiz-adv-x="727" 
d="M143 948v522h150v-522h-150zM434 948v522h150v-522h-150z" />
    <glyph glyph-name="numbersign" unicode="#" 
d="M795 430l-60 -430h-135l59 430h-256l-59 -430h-135l59 430h-211l19 129h211l39 291h-211l18 129h211l59 430h138l-60 -430h254l60 430h137l-60 -430h211l-18 -129h-211l-41 -291h211l-18 -129h-211zM717 850h-254l-41 -291h256z" />
    <glyph glyph-name="dollar" unicode="$" 
d="M518 838v469q-113 0 -178.5 -69.5t-65.5 -168.5q0 -69 36.5 -119.5t88.5 -75.5t119 -36zM614 631v-520q129 0 200 75.5t71 182.5q0 83 -46 144.5t-114 82.5zM1030 1067h-174q-12 97 -62.5 156.5t-179.5 83.5v-490q195 -57 266 -92q120 -61 160 -164q25 -66 25 -160
q0 -100 -31 -179t-79 -126.5t-110 -79t-119 -43.5t-112 -12v-197h-96v197q-80 4 -145 20.5t-123.5 51t-98 87t-62.5 132.5t-23 184h180q9 -166 64.5 -233t207.5 -92v542q-52 12 -90 23t-85 29t-80.5 38.5t-67 51t-54.5 67t-34 86.5t-13 109q0 167 121.5 283t302.5 116v131
h96v-131q49 -4 93 -12.5t105 -34.5t104.5 -65t77 -111t36.5 -166z" />
    <glyph glyph-name="percent" unicode="%" horiz-adv-x="1820" 
d="M80 1077q0 146 102.5 246t247.5 100q143 0 245.5 -101t102.5 -245q0 -145 -101.5 -247.5t-246.5 -102.5t-247.5 101.5t-102.5 248.5zM223 1077q0 -92 60 -149.5t145 -57.5q88 0 147.5 60.5t59.5 146.5t-60 144.5t-145 58.5q-87 0 -147 -59.5t-60 -143.5zM1042 336
q0 145 102.5 245.5t248.5 100.5q143 0 245.5 -101t102.5 -245q0 -145 -101.5 -247.5t-246.5 -102.5q-146 0 -248.5 101.5t-102.5 248.5zM1186 336q0 -92 60 -149.5t145 -57.5q88 0 147 60.5t59 146.5t-59.5 144.5t-144.5 58.5q-87 0 -147 -59.5t-60 -143.5zM1370 1440
l-811 -1479h-110l808 1479h113z" />
    <glyph glyph-name="ampersand" unicode="&#x26;" horiz-adv-x="1366" 
d="M854 289l-332 405q-56 -36 -88 -58t-68 -53.5t-54 -60t-30 -68t-12 -85.5q0 -52 20 -95.5t49.5 -70t66.5 -45t69.5 -26t59.5 -7.5q198 0 319 164zM586 899q30 21 50 35.5t48 40.5t44.5 50t29 58t12.5 70q0 46 -16 80t-41.5 50.5t-50.5 24t-50 7.5q-53 0 -90 -17.5
t-53.5 -45t-22.5 -51t-6 -46.5q0 -110 146 -256zM1059 317l262 -317h-234l-137 168q-85 -98 -182 -148.5t-246 -50.5q-76 0 -139.5 15.5t-107 41t-77.5 60t-54 69.5t-32.5 73.5t-17 68.5t-4.5 57q0 79 13.5 136t50.5 112.5t101 106t167 108.5q-90 111 -123 174.5t-33 151.5
q0 135 93.5 231t254.5 96q83 0 148.5 -26.5t104 -70.5t58 -96.5t19.5 -109.5q0 -59 -18.5 -113t-41.5 -89.5t-65.5 -75.5t-67.5 -58t-71 -49l268 -319q26 70 36.5 110t23.5 119h170q-15 -184 -119 -375z" />
    <glyph glyph-name="quotesingle" unicode="'" horiz-adv-x="391" 
d="M121 948v522h149v-522h-149z" />
    <glyph glyph-name="parenleft" unicode="(" horiz-adv-x="681" 
d="M485 1501h125q-48 -91 -71 -135.5t-59.5 -121.5t-53 -127t-39 -127t-32 -147.5t-16.5 -162t-7 -195.5q0 -122 19 -234.5t61.5 -230t84.5 -209.5t115 -235h-120q-90 134 -147 233.5t-108 219t-74.5 243t-23.5 263.5q0 259 86 488.5t260 477.5z" />
    <glyph glyph-name="parenright" unicode=")" horiz-adv-x="681" 
d="M197 -424h-125q48 91 71 135.5t59.5 121.5t53 127t39 127t32 147.5t16.5 162t7 195.5q0 122 -19 234.5t-61.5 230t-84.5 209.5t-115 235h120q71 -107 119.5 -186.5t96 -177t75.5 -185t45 -192.5t17 -217q0 -259 -86 -489t-260 -478z" />
    <glyph glyph-name="asterisk" unicode="*" horiz-adv-x="796" 
d="M80 1210l41 113l215 -78v225h123v-225l215 78l41 -113l-221 -69l137 -189l-101 -69l-133 192l-133 -192l-100 69l137 189z" />
    <glyph glyph-name="plus" unicode="+" horiz-adv-x="1196" 
d="M524 592v442h150v-442h442v-150h-442v-442h-150v442h-444v150h444z" />
    <glyph glyph-name="comma" unicode="," horiz-adv-x="569" 
d="M178 0v217h213v-201q0 -79 -19 -139.5t-43.5 -91.5t-59 -52t-53 -26t-38.5 -8v94q41 4 66.5 37t34 75t8.5 95h-109z" />
    <glyph glyph-name="hyphen" unicode="-" horiz-adv-x="681" 
d="M592 659v-184h-502v184h502z" />
    <glyph glyph-name="hyphen" unicode="&#xad;" horiz-adv-x="681" 
d="M592 659v-184h-502v184h502z" />
    <glyph glyph-name="period" unicode="." horiz-adv-x="569" 
d="M391 217v-217h-213v217h213z" />
    <glyph glyph-name="slash" unicode="/" horiz-adv-x="569" 
d="M604 1509l-502 -1548h-137l504 1548h135z" />
    <glyph glyph-name="zero" unicode="0" 
d="M870 700q0 277 -74.5 427.5t-226.5 150.5t-226.5 -150.5t-74.5 -427.5t74.5 -427t226.5 -150t226.5 150t74.5 427zM1063 700q0 -69 -5.5 -135.5t-20.5 -141.5t-38 -139.5t-62 -125.5t-89 -103.5t-121.5 -68t-157.5 -25.5t-157.5 25.5t-121.5 68t-88.5 103.5t-62 125.5
t-38 139.5t-20 141.5t-5.5 135.5t5.5 135.5t20 142t38 140t62 125t88.5 103.5t121.5 68.5t157.5 25.5t157.5 -25.5t121.5 -68.5t89 -103.5t62 -125.5t38 -140t20.5 -141.5t5.5 -135.5z" />
    <glyph glyph-name="one" unicode="1" 
d="M735 1440v-1440h-192v1022h-336v143q56 4 92 8t76 12t65 20.5t50.5 32t43 47.5t33 66t27.5 89h141z" />
    <glyph glyph-name="two" unicode="2" 
d="M270 924h-180q0 97 20 176t51 131.5t76 92t89 61t95.5 35t89.5 17t77 3.5q193 0 321.5 -117t128.5 -313q0 -75 -20.5 -138.5t-51.5 -109t-86 -90t-103 -74.5t-124 -70l-149 -82q-69 -38 -119.5 -80t-76 -79.5t-37 -64.5t-15.5 -52h782v-170h-985q7 211 93.5 345
t244.5 226l191 111q46 26 64.5 37t54.5 34.5t51 39t37.5 41.5t32 51t17 59t7.5 74q0 46 -15.5 89.5t-47.5 83t-89.5 63.5t-132.5 24q-44 0 -81.5 -9.5t-64.5 -23.5t-49 -37.5t-36.5 -44t-25.5 -51.5t-16.5 -51.5t-9.5 -52t-5 -45.5t-3 -39z" />
    <glyph glyph-name="three" unicode="3" 
d="M459 664v155q62 -4 94 -4q44 0 82 7t74 24.5t61.5 43.5t41 67.5t15.5 93.5q0 28 -6.5 56.5t-25.5 60t-47.5 55.5t-76.5 39.5t-110 15.5q-53 0 -95.5 -12.5t-70.5 -30.5t-49 -48t-32 -53.5t-18.5 -60t-10 -55t-4.5 -49.5h-177q0 69 11.5 130.5t43.5 126t82 110t134.5 75
t193.5 29.5q205 0 325 -105.5t120 -273.5q0 -65 -17.5 -119.5t-46 -89.5t-59 -56.5t-62.5 -31.5v-4q240 -78 240 -336q0 -92 -30 -172.5t-90.5 -147t-162.5 -105t-235 -38.5q-145 0 -266 64q-58 30 -99 75.5t-64.5 102.5t-35 113t-16.5 124h186q2 -48 8 -85.5t25.5 -83.5
t51 -76t88.5 -51t134 -21q139 0 226.5 77t87.5 201q0 265 -336 265q-13 0 -41 -1t-41 -1z" />
    <glyph glyph-name="four" unicode="4" 
d="M1071 350h-211v-350h-180v350h-629v176l660 914h149v-934h211v-156zM676 1159l-459 -653h463v653h-4z" />
    <glyph glyph-name="five" unicode="5" 
d="M362 1233l-61 -395q117 90 279 90q89 0 172.5 -31t151 -87.5t108.5 -146t41 -196.5q0 -38 -5 -78.5t-20 -91.5t-38.5 -96.5t-64.5 -90.5t-94 -77t-130.5 -52t-170.5 -20q-61 0 -117.5 10t-116.5 37.5t-106 70.5t-80 114.5t-44 164.5h186q13 -121 95 -181t210 -60
q136 0 219.5 95t83.5 234q0 150 -90 235t-229 85q-161 0 -267 -137l-155 8l108 772h746v-176h-611z" />
    <glyph glyph-name="six" unicode="6" 
d="M1030 1057h-176q-40 221 -248 221q-68 0 -123.5 -28.5t-91.5 -76.5t-62 -104t-39.5 -118.5t-19.5 -112.5t-6 -93l4 -4q42 73 125.5 125t216.5 52q56 0 114.5 -14t120 -48.5t109 -84.5t77.5 -130.5t30 -179.5q0 -111 -32 -196.5t-105 -164.5q-42 -46 -84 -74t-112.5 -46.5
t-168.5 -18.5q-61 0 -123 17.5t-131 67t-117 124.5q-110 173 -110 500q0 85 10 167t32 172t63 165t97.5 136t141 95.5t188.5 34.5q53 0 106 -11.5t108 -39.5t98 -70t73 -110t35 -152zM289 442q0 -60 18 -115.5t53.5 -101.5t95.5 -74t136 -28q128 0 205 91.5t77 238.5
q0 52 -14.5 101.5t-46 96.5t-91 76t-138.5 29q-143 0 -219 -89.5t-76 -224.5z" />
    <glyph glyph-name="seven" unicode="7" 
d="M76 1233v176h995v-158q-50 -53 -107 -126t-133 -194.5t-140.5 -255t-123 -313t-88.5 -362.5h-198q36 288 204.5 636t382.5 597h-792z" />
    <glyph glyph-name="eight" unicode="8" 
d="M1008 1069q0 -59 -14 -108t-31.5 -78t-48 -55.5t-47 -36.5t-44.5 -25q69 -29 118.5 -73t73.5 -93t34 -93.5t10 -90.5q0 -71 -18 -136t-56.5 -123.5t-94.5 -102t-138 -68.5t-181 -25q-78 0 -173.5 25.5t-172.5 85.5q-51 41 -84 90t-45 101.5t-15 81.5t-3 69q0 252 244 350
q-93 36 -144 108t-51 172q0 49 12 99t43 104.5t78.5 96.5t125.5 69t177 27q114 0 203 -34t140 -89t76.5 -118.5t25.5 -129.5zM567 676q-143 0 -220 -78.5t-77 -187.5q0 -38 7.5 -74.5t29 -76t54.5 -69t89 -48.5t128 -19q43 0 80.5 6.5t77 25t67.5 47.5t45.5 78.5t17.5 114.5
q0 139 -84 210t-215 71zM565 831q115 0 185.5 66t70.5 166q0 36 -13 71t-41.5 69t-83.5 54.5t-130 20.5q-69 0 -118.5 -21.5t-74.5 -57t-36 -71.5t-11 -75q0 -99 74.5 -160.5t177.5 -61.5z" />
    <glyph glyph-name="nine" unicode="9" 
d="M539 481q-202 0 -327.5 126t-125.5 339q0 99 30.5 187.5t87 157.5t146 109t199.5 40q95 0 172 -25.5t128.5 -65.5t90 -99t59.5 -116.5t34 -127.5t16.5 -123t3.5 -111q0 -33 -1.5 -68.5t-7.5 -95.5t-16 -115.5t-30 -122t-46 -122.5t-66.5 -110.5t-89.5 -92.5t-117.5 -61
t-148.5 -23q-97 0 -174 27t-123 68t-77 94.5t-42.5 101.5t-11.5 94h181q8 -110 71 -172.5t172 -62.5q147 0 229.5 128.5t116.5 409.5l-4 4q-38 -80 -131 -126t-198 -46zM565 643q33 0 65.5 6.5t72.5 27.5t69 55t49.5 96t20.5 143q0 134 -72.5 220.5t-218.5 86.5
q-126 0 -202.5 -89.5t-76.5 -234.5q0 -79 19.5 -138t48 -91t70.5 -51.5t77.5 -25t77.5 -5.5z" />
    <glyph glyph-name="colon" unicode=":" horiz-adv-x="569" 
d="M391 217v-217h-213v217h213zM391 1057v-217h-213v217h213z" />
    <glyph glyph-name="semicolon" unicode=";" horiz-adv-x="569" 
d="M178 0v217h213v-201q0 -79 -19 -139.5t-43.5 -91.5t-59 -52t-53 -26t-38.5 -8v94q41 4 66.5 37t34 75t8.5 95h-109zM391 840h-213v217h213v-217z" />
    <glyph glyph-name="less" unicode="&#x3c;" horiz-adv-x="1196" 
d="M1098 186v-163l-1000 423v144l1000 424v-164l-799 -332z" />
    <glyph glyph-name="equal" unicode="=" horiz-adv-x="1196" 
d="M1116 799v-150h-1036v150h1036zM1116 385v-149h-1036v149h1036z" />
    <glyph glyph-name="greater" unicode="&#x3e;" horiz-adv-x="1196" 
d="M98 850v164l1000 -424v-144l-1000 -423v163l799 332z" />
    <glyph glyph-name="question" unicode="?" 
d="M295 1010h-180q2 47 3.5 70t7 64.5t16 68t27.5 61t44 64t63 57.5q122 94 297 94q87 0 165 -26.5t138.5 -76t96 -127t35.5 -172.5q0 -67 -21 -120t-58.5 -98.5t-113.5 -118.5q-44 -42 -59.5 -58t-43.5 -48.5t-37 -53t-21.5 -55t-15 -72t-1.5 -88.5h-180q0 70 7.5 122
t18.5 90t39 78t53 69t76 81q62 63 84.5 88t46 61t28.5 63.5t5 72.5q0 28 -6.5 57.5t-24 61.5t-44 57t-71.5 41t-102 16q-54 0 -97.5 -13.5t-71 -34.5t-48 -52t-31 -58.5t-16.5 -62.5t-7 -56t-1 -46zM651 209v-209h-198v209h198z" />
    <glyph glyph-name="at" unicode="@" horiz-adv-x="2078" 
d="M1251 836q0 75 -50.5 131.5t-117.5 56.5q-86 0 -159.5 -65t-111.5 -156t-38 -178q0 -88 48 -143.5t124 -55.5q82 0 154.5 69t111.5 163t39 178zM1315 1012l41 127h139q-29 -107 -79 -277t-77.5 -268.5t-27.5 -122.5q0 -31 9.5 -45t33.5 -14q68 0 136 64t111.5 168
t43.5 210q0 159 -79 281t-208 184.5t-285 62.5q-179 0 -322 -88t-221.5 -237.5t-78.5 -329.5q0 -178 84 -325t229.5 -230.5t322.5 -83.5q142 0 276 63t222 171h137q-100 -167 -271.5 -264t-367.5 -97q-216 0 -395.5 103t-283 281.5t-103.5 393.5q0 210 104.5 387.5t282 280
t385.5 102.5q189 0 350 -81t258 -228.5t97 -329.5q0 -107 -33.5 -203.5t-87 -165.5t-118.5 -120.5t-130 -76.5t-121 -25q-55 0 -91.5 33t-39.5 96l-4 -2q-50 -54 -114.5 -90.5t-131.5 -36.5q-130 0 -215.5 95.5t-85.5 231.5q0 104 34.5 205t94.5 181t150.5 129.5t193.5 49.5
q163 0 236 -159z" />
    <glyph glyph-name="A" unicode="A" horiz-adv-x="1366" 
d="M977 428h-590l-154 -428h-204l553 1470h225l532 -1470h-217zM449 604h456l-217 647h-4z" />
    <glyph glyph-name="B" unicode="B" horiz-adv-x="1366" 
d="M350 1300v-452h359q151 0 229 54t78 183q0 106 -72 160.5t-233 54.5h-361zM152 0v1470h647q197 0 306 -105.5t109 -264.5q0 -56 -14 -106.5t-60 -108t-122 -92.5q29 -12 45.5 -19t48.5 -25t51.5 -34.5t45 -45.5t40 -60.5t25 -77t10.5 -97.5q0 -89 -33 -167.5t-94.5 -138
t-157.5 -94t-215 -34.5h-632zM350 686v-516h424q152 0 231.5 71t79.5 197q0 248 -344 248h-391z" />
    <glyph glyph-name="C" unicode="C" horiz-adv-x="1478" 
d="M1380 1028h-192q-16 74 -51 130.5t-77 88.5t-94.5 52.5t-97.5 27t-92 6.5q-101 0 -187.5 -37.5t-152.5 -108.5t-103.5 -183.5t-37.5 -253.5q0 -107 15.5 -197t51 -168t91 -132t139 -85t190.5 -31q44 0 87 8.5t96.5 35.5t97 69.5t82 117.5t57.5 173h193
q-17 -114 -56.5 -206.5t-87 -151.5t-109.5 -103t-115.5 -66t-113.5 -35t-94 -15.5t-67 -2.5q-103 0 -197 26.5t-180 86.5t-148.5 149t-99.5 222.5t-37 297.5q0 226 81.5 399t238 270t366.5 97q137 0 249 -40t185 -108.5t116 -153t54 -179.5z" />
    <glyph glyph-name="D" unicode="D" horiz-adv-x="1478" 
d="M166 0v1470h596q284 0 451 -196.5t167 -517.5q0 -105 -18 -205.5t-64 -202.5t-114.5 -177.5t-179.5 -123t-250 -47.5h-588zM365 1300v-1130h385q197 0 311.5 149.5t114.5 423.5q0 273 -117 415t-324 142h-370z" />
    <glyph glyph-name="E" unicode="E" horiz-adv-x="1366" 
d="M1262 176v-176h-1086v1470h1071v-176h-872v-450h805v-176h-805v-492h887z" />
    <glyph glyph-name="F" unicode="F" horiz-adv-x="1251" 
d="M375 668v-668h-199v1470h1018v-176h-819v-450h721v-176h-721z" />
    <glyph glyph-name="G" unicode="G" horiz-adv-x="1593" 
d="M797 616v170h645v-786h-129l-47 190q-76 -105 -206 -167t-280 -62q-90 0 -164.5 14.5t-128.5 41.5t-88.5 52t-68.5 58q-54 51 -95 107.5t-65.5 114.5t-40 108.5t-21.5 109t-8 95t-2 86.5q0 110 26 217t82 205.5t136 173.5t197 120t256 45q106 0 207.5 -30t189.5 -88
t148.5 -153t76.5 -214h-192q-18 74 -55 130.5t-80.5 89.5t-98.5 53.5t-104.5 28t-102.5 7.5q-100 0 -187 -39.5t-152.5 -113.5t-103.5 -188t-38 -255q0 -96 13 -178.5t47.5 -163.5t88 -137.5t141 -91.5t200.5 -35q182 0 301 94q91 72 126 166.5t35 224.5h-458z" />
    <glyph glyph-name="H" unicode="H" horiz-adv-x="1478" 
d="M1124 862v608h199v-1470h-199v686h-768v-686h-198v1470h198v-608h768z" />
    <glyph glyph-name="I" unicode="I" horiz-adv-x="569" 
d="M385 1470v-1470h-199v1470h199z" />
    <glyph glyph-name="J" unicode="J" horiz-adv-x="1024" 
d="M35 473h186v-102q0 -127 56.5 -183.5t164.5 -56.5q129 0 182.5 67.5t53.5 186.5v1085h199v-1073q0 -99 -25.5 -177t-66 -125.5t-97.5 -78.5t-114 -43t-121 -12q-98 0 -174.5 25.5t-121 64t-73.5 89.5t-39 96.5t-10 91.5v145z" />
    <glyph glyph-name="K" unicode="K" horiz-adv-x="1366" 
d="M354 516v-516h-198v1470h198v-712l713 712h274l-612 -593l629 -877h-258l-514 737z" />
    <glyph glyph-name="L" unicode="L" 
d="M354 1470v-1294h746v-176h-944v1470h198z" />
    <glyph glyph-name="M" unicode="M" horiz-adv-x="1705" 
d="M1559 0h-193v868q0 10 2 148.5t2 218.5h-4l-414 -1235h-196l-414 1233h-4q0 -79 2 -217t2 -148v-868h-192v1470h284l420 -1243h4l418 1243h283v-1470z" />
    <glyph glyph-name="N" unicode="N" horiz-adv-x="1478" 
d="M1130 283v1187h193v-1470h-223l-748 1188h-4v-1188h-192v1470h235l735 -1187h4z" />
    <glyph glyph-name="O" unicode="O" horiz-adv-x="1593" 
d="M1309 735q0 264 -138.5 431t-373.5 167t-373.5 -167t-138.5 -431t138.5 -431t373.5 -167t373.5 167t138.5 431zM1513 735q0 -71 -10.5 -143t-35.5 -149t-62.5 -146t-95.5 -131t-130 -107t-170 -71.5t-212 -26.5q-158 0 -284.5 50.5t-205.5 130t-132 184.5t-74 206.5
t-21 202.5t21 202.5t74 206.5t132 184.5t205.5 130t284.5 50.5q114 0 212 -26.5t170 -71.5t130 -107t95.5 -131t62.5 -146t35.5 -149t10.5 -143z" />
    <glyph glyph-name="P" unicode="P" horiz-adv-x="1366" 
d="M375 1300v-509h395q143 0 221 61t78 203q0 245 -291 245h-403zM375 621v-621h-199v1470h662q200 0 318 -115.5t118 -297.5q0 -64 -14.5 -124.5t-47.5 -117.5t-82 -99.5t-124.5 -68.5t-167.5 -26h-463z" />
    <glyph glyph-name="Q" unicode="Q" horiz-adv-x="1593" 
d="M860 303l101 123l186 -145q78 78 120 195.5t42 258.5q0 264 -138.5 431t-373.5 167t-373.5 -167t-138.5 -431t138.5 -431t373.5 -167q125 0 217 47zM1501 4l-100 -119l-225 174q-154 -98 -379 -98q-158 0 -284.5 50.5t-205.5 130t-132 184.5t-74 206.5t-21 202.5
t21 202.5t74 206.5t132 184.5t205.5 130t284.5 50.5q114 0 212 -26.5t170 -71.5t130 -107t95.5 -131t62.5 -146t35.5 -149t10.5 -143q0 -155 -52 -309.5t-161 -265.5z" />
    <glyph glyph-name="R" unicode="R" horiz-adv-x="1478" 
d="M379 631v-631h-199v1470h680q77 0 143.5 -11t130.5 -39t109 -71.5t72.5 -113.5t27.5 -160q0 -62 -13 -114.5t-31 -87t-48 -65.5t-54 -48t-58 -37q33 -14 51 -23t44.5 -30.5t40.5 -48t26 -71.5t14 -104l12 -266q2 -63 15.5 -92t58.5 -55v-33h-244q-19 58 -27 175.5
t-8 193.5q0 42 -4 74t-20 69.5t-43 61.5t-76.5 40.5t-118.5 16.5h-481zM379 1300v-499h461q48 0 87 5.5t80 22t69 43.5t45.5 73.5t17.5 109.5q0 65 -19 112.5t-45.5 72t-65.5 39t-69 18t-66 3.5h-495z" />
    <glyph glyph-name="S" unicode="S" horiz-adv-x="1366" 
d="M1229 1040h-187q-4 81 -37 141.5t-87 93.5t-114 48.5t-126 15.5q-43 0 -83.5 -5t-88.5 -22t-82.5 -43.5t-58 -75t-23.5 -112.5q0 -85 48 -126.5t126 -59.5l420 -96q154 -36 244 -132t90 -261q0 -84 -25 -153.5t-69 -117t-99.5 -82.5t-121.5 -54.5t-130.5 -28.5t-130.5 -9
q-96 0 -172.5 12.5t-129 36.5t-81.5 44t-61 48q-87 79 -118.5 168t-31.5 205h187q0 -77 24.5 -137.5t64 -98.5t93.5 -63t108.5 -35t114.5 -10q49 0 95.5 5t101 21.5t94.5 42.5t67 72.5t27 106.5q0 78 -29 124.5t-93.5 76t-190.5 59.5l-301 70q-313 75 -313 346q0 70 18 135
t57.5 123.5t97.5 101.5t143 68.5t189 25.5q106 0 193 -18t144.5 -46t101.5 -70t68 -82t39.5 -90t20.5 -85.5t7 -77.5z" />
    <glyph glyph-name="T" unicode="T" horiz-adv-x="1251" 
d="M29 1294v176h1194v-176h-498v-1294h-199v1294h-497z" />
    <glyph glyph-name="U" unicode="U" horiz-adv-x="1478" 
d="M1120 1470h199v-954q0 -115 -36.5 -214t-107.5 -176t-186 -121t-262 -44q-143 0 -254 43.5t-177.5 118.5t-100 167.5t-33.5 198.5v981h198v-925q0 -92 22 -164.5t57.5 -117.5t85.5 -74t100.5 -40.5t107.5 -11.5q74 0 138 19t122.5 62.5t92.5 126t34 196.5v929z" />
    <glyph glyph-name="V" unicode="V" horiz-adv-x="1366" 
d="M686 217l416 1253h223l-537 -1470h-210l-537 1470h221l420 -1253h4z" />
    <glyph glyph-name="W" unicode="W" horiz-adv-x="1933" 
d="M965 1219l-340 -1219h-209l-383 1470h215l274 -1196h4l330 1196h217l330 -1196h4l274 1196h220l-388 -1470h-208l-336 1219h-4z" />
    <glyph glyph-name="X" unicode="X" horiz-adv-x="1366" 
d="M811 754l516 -754h-246l-395 604l-407 -604h-240l526 754l-493 716h250l372 -563l373 563h238z" />
    <glyph glyph-name="Y" unicode="Y" horiz-adv-x="1366" 
d="M782 592v-592h-198v592l-555 878h231l422 -706l422 706h233z" />
    <glyph glyph-name="Z" unicode="Z" horiz-adv-x="1251" 
d="M1204 176v-176h-1157v166l901 1128h-833v176h1089v-172l-905 -1122h905z" />
    <glyph glyph-name="bracketleft" unicode="[" horiz-adv-x="569" 
d="M291 1333v-1589h221v-145h-383v1880h383v-146h-221z" />
    <glyph glyph-name="backslash" unicode="\" horiz-adv-x="569" 
d="M467 -39l-502 1548h135l504 -1548h-137z" />
    <glyph glyph-name="bracketright" unicode="]" horiz-adv-x="569" 
d="M279 -256v1589h-222v146h383v-1880h-383v145h222z" />
    <glyph glyph-name="asciicircum" unicode="^" horiz-adv-x="960" 
d="M989 541h-158l-350 704l-350 -704h-160l437 868h147z" />
    <glyph glyph-name="underscore" unicode="_" 
d="M0 -154h1139v-102h-1139v102z" />
    <glyph glyph-name="grave" unicode="`" horiz-adv-x="681" 
d="M295 1214l-266 289h221l182 -289h-137z" />
    <glyph glyph-name="a" unicode="a" 
d="M293 745h-166q11 357 442 357q28 0 60 -3.5t81 -13t91 -30.5t81 -52t62 -83t23 -117v-617q0 -63 59 -63q19 0 59 8v-131q-5 -1 -27 -8t-37 -9.5t-34 -2.5q-57 0 -95.5 13t-57.5 38.5t-26.5 50.5t-10.5 61q-32 -35 -62 -60.5t-77.5 -54t-110.5 -44t-137 -15.5
q-148 0 -242 86t-94 224q0 34 4.5 66.5t24 79t52.5 82t96 66t148 41.5l297 37q42 4 68.5 30t26.5 97q0 174 -252 174q-59 0 -103 -14.5t-68.5 -34t-41.5 -51t-22.5 -54t-10.5 -53.5zM786 371v176q-24 -19 -82 -33.5t-215 -34.5q-33 -5 -58 -10t-59.5 -17.5t-57 -30
t-38.5 -47.5t-16 -69q0 -186 195 -186q129 0 230 73.5t101 178.5z" />
    <glyph glyph-name="b" unicode="b" 
d="M289 0h-170v1470h180v-534h4q112 163 309 166q139 0 241.5 -71.5t154 -191.5t51.5 -272q0 -82 -13.5 -161t-47.5 -159.5t-86 -141t-135.5 -98.5t-188.5 -38q-52 0 -97 12t-74.5 28t-56 41t-40 42.5t-27.5 40.5h-4v-133zM872 539q0 37 -1.5 66t-8 73t-17.5 77t-33 69.5
t-52 60.5t-76 39.5t-104 15.5q-289 0 -289 -455q0 -101 29 -175.5t75.5 -112.5t93.5 -55t95 -17q142 0 215 114t73 300z" />
    <glyph glyph-name="c" unicode="c" horiz-adv-x="1024" 
d="M977 711h-174q-37 229 -254 229q-80 0 -139.5 -35.5t-92 -95.5t-48 -128t-15.5 -144q0 -412 293 -412q93 0 163 67t93 187h174q-6 -55 -22 -108t-49.5 -109t-80.5 -98t-120.5 -68.5t-163.5 -26.5q-221 0 -350.5 150t-129.5 387q0 127 31 233.5t92.5 188.5t161.5 128
t229 46q81 0 148 -23t111.5 -61t76 -89.5t47 -105.5t19.5 -112z" />
    <glyph glyph-name="d" unicode="d" 
d="M1022 1470v-1470h-170v147h-4q-96 -178 -305 -178q-105 0 -188.5 38t-135.5 98.5t-86 141t-47.5 159.5t-13.5 161q0 152 51 272t153.5 191.5t241.5 71.5q56 0 105 -14t79 -31t61.5 -47.5t43 -46t31.5 -43.5h4v550h180zM258 539q0 -186 73.5 -300t215.5 -114q48 0 95 17
t93.5 55t75.5 112.5t29 175.5q0 455 -289 455q-58 0 -104 -15.5t-76 -39.5t-52 -60.5t-33.5 -70t-18 -77t-8 -72.5t-1.5 -66z" />
    <glyph glyph-name="e" unicode="e" 
d="M862 336h180q-4 -33 -21 -79t-62 -109.5t-107 -104.5q-32 -21 -59.5 -34.5t-89.5 -26.5t-142 -13q-221 0 -350 150t-129 387q0 127 31 233.5t92.5 188.5t161.5 128t229 46q226 0 343.5 -166.5t117.5 -458.5h-783q0 -169 79 -260.5t233 -91.5q116 0 193.5 70t82.5 141z
M274 621h596q-4 66 -20.5 120.5t-50 100.5t-91.5 72t-137 26q-123 0 -210 -96t-87 -223z" />
    <glyph glyph-name="f" unicode="f" horiz-adv-x="569" 
d="M537 922h-181v-922h-180v922h-147v149h147v184q0 119 72 177.5t207 58.5q24 0 82 -4v-162q-46 4 -74 4q-58 0 -82.5 -29.5t-24.5 -95.5v-133h181v-149z" />
    <glyph glyph-name="g" unicode="g" 
d="M268 539q0 -186 73.5 -300t215.5 -114q48 0 95 17t93.5 55t75.5 112.5t29 175.5q0 455 -289 455q-58 0 -104 -15.5t-76 -39.5t-52 -60.5t-33.5 -70t-18 -77t-8 -72.5t-1.5 -66zM1022 1071v-983q0 -36 -0.5 -59.5t-5 -70t-13 -79.5t-26 -78.5t-41.5 -78t-62.5 -67.5
t-86.5 -56.5t-115.5 -35.5t-147.5 -14q-46 0 -89 5.5t-99 25.5t-99 53t-77.5 94t-44.5 142h180q33 -170 242 -170q87 0 148.5 28t91 63t45.5 95t18 94t2 90v7v45q-41 -69 -114 -110.5t-175 -41.5q-105 0 -188.5 38t-135.5 98.5t-86 141t-47.5 159.5t-13.5 161q0 152 51 272
t153.5 191.5t241.5 71.5q56 0 105 -14.5t80 -32t62 -48.5t44 -48t33 -46v158h170z" />
    <glyph glyph-name="h" unicode="h" 
d="M1006 729v-729h-181v700q0 119 -46 179.5t-167 60.5q-59 0 -109.5 -18.5t-94.5 -57.5t-69.5 -111t-25.5 -169v-584h-180v1470h180v-542h4q24 33 47.5 57t62.5 54t91 46.5t113 16.5q54 0 103 -9t100 -34.5t88 -66t60.5 -108t23.5 -155.5z" />
    <glyph glyph-name="i" unicode="i" horiz-adv-x="454" 
d="M317 1071v-1071h-180v1071h180zM317 1266h-180v204h180v-204z" />
    <glyph glyph-name="j" unicode="j" horiz-adv-x="454" 
d="M317 1071v-1229q0 -26 -1 -44.5t-7 -49t-16 -52.5t-30.5 -47.5t-48.5 -41.5t-72 -26.5t-99 -10.5q-35 0 -76 6v156h37q44 0 66 3.5t39.5 17t22.5 39t5 71.5v1208h180zM317 1470v-204h-180v204h180z" />
    <glyph glyph-name="k" unicode="k" horiz-adv-x="1024" 
d="M592 672l434 -672h-231l-334 541l-150 -135v-406h-174v1470h174v-852l461 453h229z" />
    <glyph glyph-name="l" unicode="l" horiz-adv-x="454" 
d="M317 1470v-1470h-180v1470h180z" />
    <glyph glyph-name="m" unicode="m" horiz-adv-x="1705" 
d="M133 0v1071h170v-151h4q125 182 324 182q55 0 101 -14t73 -30t52.5 -45.5t34 -43.5t23.5 -41q41 46 67.5 71t66.5 52.5t87 39t107 11.5q39 0 79 -8t87 -32.5t82.5 -63t59.5 -105t24 -152.5v-741h-180v692q0 119 -45 183.5t-154 64.5q-110 0 -181 -87t-71 -200v-653h-180
v741q0 37 -8 69.5t-26 63t-52.5 48.5t-81.5 18q-34 0 -69 -8.5t-74.5 -33.5t-69.5 -63t-50 -103t-20 -148v-584h-180z" />
    <glyph glyph-name="n" unicode="n" 
d="M1006 729v-729h-181v659q0 146 -51 213.5t-178 67.5q-34 0 -69 -8.5t-74.5 -33.5t-69.5 -63t-50 -103t-20 -148v-584h-180v1071h170v-151h4q125 182 324 182q54 0 103 -9t100 -34.5t88 -66t60.5 -108t23.5 -155.5z" />
    <glyph glyph-name="o" unicode="o" 
d="M72 537q0 85 18.5 165t58.5 153t97 127.5t140.5 87t182.5 32.5q123 0 221 -49t157 -130.5t89.5 -180t30.5 -205.5q0 -85 -18.5 -165t-58.5 -153.5t-97.5 -128t-141 -87t-182.5 -32.5t-182.5 32.5t-140.5 87t-97 128t-58.5 153.5t-18.5 165zM258 537q0 -48 7 -98
t28.5 -108t54.5 -101.5t90 -73t131 -29.5t131.5 29.5t90.5 73.5t54 101.5t28.5 107.5t7.5 98t-7.5 98t-28.5 107.5t-54 101t-90.5 73t-131.5 29.5t-131 -29.5t-90 -73t-54.5 -101.5t-28.5 -107.5t-7 -97.5z" />
    <glyph glyph-name="p" unicode="p" 
d="M291 485q0 -101 29 -175.5t75.5 -112.5t93.5 -55t95 -17q142 0 215 114t73 300q0 37 -1.5 66t-8 73t-17.5 77t-33 69.5t-52 60.5t-76 39.5t-104 15.5q-289 0 -289 -455zM119 -424v1495h170v-151h4q20 29 31.5 43.5t42.5 45.5t61 47.5t79 31t105 14.5q139 0 241.5 -71.5
t154 -191.5t51.5 -272q0 -82 -13.5 -161t-47.5 -159.5t-86 -141t-135.5 -98.5t-188.5 -38q-101 0 -173.5 40.5t-111.5 103.5h-4v-537h-180z" />
    <glyph glyph-name="q" unicode="q" 
d="M1012 1071v-1495h-181v537h-4q-39 -63 -111.5 -103.5t-172.5 -40.5q-105 0 -188.5 38t-135.5 98.5t-86 141t-47.5 159.5t-13.5 161q0 152 51 272t153.5 191.5t241.5 71.5q56 0 105 -14t79 -31t61.5 -47.5t43 -46t31.5 -43.5h4v151h170zM840 485q0 455 -289 455
q-58 0 -104 -15.5t-76 -39.5t-52 -60.5t-33.5 -70t-18 -77t-8 -72.5t-1.5 -66q0 -186 73.5 -300t215.5 -114q48 0 95 17t93.5 55t75.5 112.5t29 175.5z" />
    <glyph glyph-name="r" unicode="r" horiz-adv-x="681" 
d="M338 623v-623h-180v1071h170v-178h4q120 209 301 209q26 0 47 -6v-187h-68q-123 0 -198.5 -83t-75.5 -203z" />
    <glyph glyph-name="s" unicode="s" horiz-adv-x="1024" 
d="M915 766h-174q-5 180 -254 180q-27 0 -57.5 -5.5t-68.5 -19.5t-62.5 -47t-24.5 -79q0 -62 40.5 -88.5t154.5 -55.5l180 -45q165 -41 233 -106t68 -176q0 -163 -119.5 -259t-304.5 -96q-88 0 -158.5 14.5t-117 36.5t-81.5 56.5t-53.5 65.5t-30 72t-14.5 68t-5 62h174
q2 -26 6 -46t13.5 -47.5t29.5 -48t49.5 -39t77 -28.5t108.5 -10q105 0 175.5 43t70.5 127q0 62 -45.5 92.5t-167.5 61.5l-209 51q-248 61 -248 260q0 86 33.5 152.5t91 107.5t129 61.5t152.5 20.5q79 0 143 -16t105.5 -41t73 -59t47.5 -65t25.5 -65.5t12 -54t2.5 -35.5z" />
    <glyph glyph-name="t" unicode="t" horiz-adv-x="569" 
d="M526 922h-172v-697q0 -24 8.5 -41t19 -25t28 -12.5t27.5 -5t26 -0.5h63v-141q-27 -2 -58.5 -6t-50 -6t-26.5 -2q-65 0 -109 17t-67 50t-32 71.5t-9 90.5v707h-145v149h145v299h180v-299h172v-149z" />
    <glyph glyph-name="u" unicode="u" 
d="M1001 0h-170v156l-4 4q-60 -98 -138 -144.5t-202 -46.5q-50 0 -97 9.5t-93.5 34t-80.5 61t-55.5 95t-21.5 132.5v770h180v-711q0 -235 207 -235q81 0 141 33t92 87.5t47 113.5t15 122v590h180v-1071z" />
    <glyph glyph-name="v" unicode="v" horiz-adv-x="1024" 
d="M508 199l303 872h197l-408 -1071h-192l-392 1071h209l279 -872h4z" />
    <glyph glyph-name="w" unicode="w" horiz-adv-x="1478" 
d="M733 829l-209 -829h-186l-309 1071h196l205 -842h4l207 842h201l209 -842h4l217 842h180l-311 -1071h-187l-217 829h-4z" />
    <glyph glyph-name="x" unicode="x" horiz-adv-x="1024" 
d="M627 551l377 -551h-230l-266 403l-258 -403h-227l376 551l-358 520h231l248 -377l248 377h221z" />
    <glyph glyph-name="y" unicode="y" horiz-adv-x="1024" 
d="M516 199l287 872h198q-275 -770 -385 -1051q-37 -94 -57.5 -145.5t-47.5 -108.5t-41.5 -82.5t-40 -54.5t-43 -37.5t-50.5 -18t-61.5 -10.5t-77.5 -1q-18 0 -76 16v164q52 -18 108 -18q19 0 31.5 1t26 7.5t21.5 11t20 22t18.5 29.5t20.5 44.5t23.5 56.5t29.5 75l-397 1100
h204l285 -872h4z" />
    <glyph glyph-name="z" unicode="z" horiz-adv-x="1024" 
d="M942 924l-639 -774h658v-150h-898v141l646 781h-596v149h829v-147z" />
    <glyph glyph-name="braceleft" unicode="{" horiz-adv-x="684" 
d="M86 479v123q71 0 118.5 74t47.5 186v352q0 120 63 192.5t146 72.5h137v-133h-90q-94 0 -94 -168v-349q-3 -57 -19.5 -105.5t-37.5 -79.5t-46 -54t-44.5 -33t-33.5 -14v-4q20 -6 44.5 -22t56 -48t54 -90.5t26.5 -132.5v-346q0 -168 94 -168h90v-133h-137q-83 0 -146 72
t-63 192v350q0 115 -47.5 190.5t-118.5 75.5z" />
    <glyph glyph-name="bar" unicode="|" horiz-adv-x="532" 
d="M193 1587h149v-2048h-149v2048z" />
    <glyph glyph-name="braceright" unicode="}" horiz-adv-x="684" 
d="M598 602v-123q-71 0 -118.5 -75.5t-47.5 -190.5v-350q0 -120 -63 -192t-146 -72h-137v133h90q94 0 94 168v346q4 74 26.5 132.5t54 90.5t56 48t44.5 22v4q-14 4 -33.5 14t-44.5 33t-46 54t-37.5 79.5t-19.5 105.5v349q0 168 -94 168h-90v133h137q83 0 146 -72.5
t63 -192.5v-352q0 -112 47.5 -186t118.5 -74z" />
    <glyph glyph-name="asciitilde" unicode="~" horiz-adv-x="1196" 
d="M997 668l74 -115q-110 -176 -256 -176q-86 0 -209 67q-128 72 -235 72q-105 0 -172 -147l-74 114q92 176 256 176q82 0 227 -65q161 -74 209 -74q29 0 55 11.5t49.5 36.5t38 45t37.5 55z" />
    <glyph glyph-name="sterling" unicode="&#xa3;" 
d="M68 778h141q-2 5 -11 23l-12.5 25t-12 25t-12 27t-10.5 26.5t-10 29t-7.5 28.5t-7 30.5t-4 29.5t-1.5 31q0 55 14 109t50.5 111t92 99.5t146 70t203.5 27.5q111 0 198 -37.5t138.5 -101t77.5 -139t26 -158.5v-30h-180v18q0 128 -78 210.5t-203 82.5q-64 0 -116.5 -18.5
t-84.5 -46.5t-53.5 -63t-30 -66t-8.5 -58q0 -57 25 -121t80 -164h342v-129h-283q19 -74 19 -135q0 -93 -62 -195t-182 -184v-2q134 76 268 76q69 0 187.5 -36t156.5 -36q40 0 85.5 19.5t70.5 44.5l84 -135q-67 -51 -127.5 -75t-132.5 -24q-58 0 -203 46t-225 46
q-107 0 -240 -82l-100 142q75 50 128 108t77.5 111t34.5 92t10 72q0 55 -39 147h-219v129z" />
    <glyph glyph-name="currency" unicode="&#xa4;" 
d="M983 1235l98 -98l-112 -111q102 -117 102 -307q0 -184 -102 -309l110 -115l-92 -92l-113 119q-122 -113 -305 -113t-305 113l-112 -119l-93 92l111 115q-102 125 -102 309q0 190 102 307l-113 111l99 98l116 -115q58 50 136 77.5t161 27.5t161 -27.5t136 -77.5zM217 719
q0 -149 103 -258t249 -109t249.5 109t103.5 258q0 146 -104 254t-249 108t-248.5 -108t-103.5 -254z" />
    <glyph glyph-name="brokenbar" unicode="&#xa6;" horiz-adv-x="532" 
d="M193 -307v717h149v-717h-149zM193 717v717h149v-717h-149z" />
    <glyph glyph-name="section" unicode="&#xa7;" 
d="M942 1135h-174q-2 30 -4.5 49.5t-14.5 55t-31.5 57.5t-59 39.5t-93.5 17.5q-44 0 -84.5 -15t-72 -54t-31.5 -97q0 -54 37 -96.5t112 -87.5l299 -177q109 -64 166.5 -137.5t57.5 -189.5q0 -62 -17.5 -113.5t-50 -91.5t-65.5 -67t-78 -56q53 -58 79.5 -110t26.5 -123
q0 -100 -57 -177.5t-140.5 -115t-173.5 -37.5q-88 0 -160 22.5t-127 67.5t-85.5 120.5t-30.5 174.5h180q0 -26 2.5 -50.5t14.5 -59t32 -59.5t59 -43t91 -18q34 0 66.5 6.5t68.5 23t58 52.5t22 88q0 50 -27.5 87t-85.5 75l-430 287q-51 34 -83 84.5t-41 89.5t-9 76
q0 121 51.5 192t153.5 131q-54 58 -75 102t-21 103q0 48 12 95t40.5 93t70 81.5t105 57t140.5 21.5q53 0 102.5 -9.5t101 -35.5t88.5 -66t61 -108t24 -155zM752 657l-357 220q-137 -70 -137 -199q0 -119 92 -174l387 -250q70 46 106 91t36 116q0 118 -127 196z" />
    <glyph glyph-name="dieresis" unicode="&#xa8;" horiz-adv-x="681" 
d="M268 1446v-209h-186v209h186zM600 1446v-209h-186v209h186z" />
    <glyph glyph-name="copyright" unicode="&#xa9;" horiz-adv-x="1509" 
d="M758 -39q-158 0 -302.5 58.5t-251 160.5t-170 247t-63.5 310q0 163 63.5 307.5t170 245.5t251 160t302.5 59q156 0 299.5 -59t250 -160t169.5 -245.5t63 -307.5q0 -132 -40.5 -252.5t-113.5 -215t-170 -164.5t-215 -107t-243 -37zM127 737q0 -137 49 -258t133.5 -206
t201 -134t247.5 -49q130 0 245.5 49t199 134t132.5 206t49 258q0 135 -49 255t-132.5 204.5t-199.5 134t-245 49.5q-175 0 -319.5 -83.5t-228 -231.5t-83.5 -328zM1026 592h139q-29 -151 -134 -240.5t-247 -89.5q-205 0 -330.5 136t-125.5 341q0 208 121.5 340.5
t326.5 132.5q153 0 259.5 -84.5t127.5 -236.5h-137q-19 85 -85.5 135.5t-162.5 50.5q-140 0 -217.5 -94t-77.5 -242q0 -143 83 -243.5t218 -100.5q96 0 162 54t80 141z" />
    <glyph glyph-name="guillemotleft" unicode="&#xab;" 
d="M520 401v-180l-321 252v189l321 251v-180l-215 -166zM940 401v-180l-322 252v189l322 251v-180l-215 -166z" />
    <glyph glyph-name="logicalnot" unicode="&#xac;" horiz-adv-x="1196" 
d="M967 221v428h-887v150h1036v-578h-149z" />
    <glyph glyph-name="registered" unicode="&#xae;" horiz-adv-x="1509" 
d="M758 -39q-158 0 -302.5 58.5t-251 160.5t-170 247t-63.5 310q0 163 63.5 307.5t170 245.5t251 160t302.5 59q156 0 299.5 -59t250 -160t169.5 -245.5t63 -307.5q0 -132 -40.5 -252.5t-113.5 -215t-170 -164.5t-215 -107t-243 -37zM127 737q0 -137 49 -258t133.5 -206
t201 -134t247.5 -49q130 0 245.5 49t199 134t132.5 206t49 258q0 135 -49 255t-132.5 204.5t-199.5 134t-245 49.5q-175 0 -319.5 -83.5t-228 -231.5t-83.5 -328zM594 676v-387h-135v893h340q160 0 237.5 -61.5t77.5 -192.5q0 -114 -62.5 -173.5t-168.5 -72.5l254 -393h-152
l-235 387h-156zM594 791h162q41 0 67.5 2t58 10t49 23t30 42.5t12.5 67.5q0 131 -195 131h-184v-276z" />
    <glyph glyph-name="degree" unicode="&#xb0;" horiz-adv-x="819" 
d="M410 1352q-81 0 -141 -64t-60 -147t60 -147t141 -64t140.5 64t59.5 147t-59.5 147t-140.5 64zM709 1141q0 -127 -85.5 -213t-213.5 -86t-213.5 86t-85.5 213t85.5 213t213.5 86t213.5 -86t85.5 -213z" />
    <glyph glyph-name="plusminus" unicode="&#xb1;" horiz-adv-x="1196" 
d="M524 707v329h150v-329h442v-150h-442v-330h-150v330h-444v150h444zM80 0v150h1036v-150h-1036z" />
    <glyph glyph-name="acute" unicode="&#xb4;" horiz-adv-x="681" 
d="M653 1503l-266 -289h-137l182 289h221z" />
    <glyph glyph-name="mu" unicode="&#xb5;" 
d="M1001 0h-170v156l-4 4q-60 -98 -138 -144.5t-202 -46.5q-109 0 -163 70h-5v-463h-180v1495h180v-711q0 -235 207 -235q81 0 141 33t92 87.5t47 113.5t15 122v590h180v-1071z" />
    <glyph glyph-name="mu" unicode="&#x3bc;" 
d="M1001 0h-170v156l-4 4q-60 -98 -138 -144.5t-202 -46.5q-109 0 -163 70h-5v-463h-180v1495h180v-711q0 -235 207 -235q81 0 141 33t92 87.5t47 113.5t15 122v590h180v-1071z" />
    <glyph glyph-name="paragraph" unicode="&#xb6;" horiz-adv-x="1099" 
d="M475 -354v1059q-194 0 -316 107t-122 269q0 196 125 292.5t348 96.5h508v-1824h-150v1702h-243v-1702h-150z" />
    <glyph glyph-name="periodcentered" unicode="&#xb7;" horiz-adv-x="569" 
d="M287 645q49 0 88 -37.5t39 -91.5q0 -51 -37.5 -89t-91.5 -38q-52 0 -89.5 38t-37.5 89q0 56 38.5 92.5t90.5 36.5z" />
    <glyph glyph-name="periodcentered" unicode="&#x2219;" horiz-adv-x="569" 
d="M287 645q49 0 88 -37.5t39 -91.5q0 -51 -37.5 -89t-91.5 -38q-52 0 -89.5 38t-37.5 89q0 56 38.5 92.5t90.5 36.5z" />
    <glyph glyph-name="cedilla" unicode="&#xb8;" horiz-adv-x="681" 
d="M162 -176l131 176h96l-94 -127q46 8 63 8q90 0 131 -46.5t41 -106.5q0 -82 -65 -135.5t-176 -53.5q-93 0 -197 45l35 82q79 -31 133 -31q26 0 48.5 5t44.5 25.5t22 55.5q0 41 -33.5 60.5t-65.5 19.5q-22 0 -79 -16z" />
    <glyph glyph-name="guillemotright" unicode="&#xbb;" 
d="M520 473l-321 -252v180l215 166l-215 166v180l321 -251v-189zM940 473l-322 -252v180l216 166l-216 166v180l322 -251v-189z" />
    <glyph glyph-name="Aacute" unicode="&#xc1;" horiz-adv-x="1366" 
d="M977 428h-590l-154 -428h-204l553 1470h225l532 -1470h-217zM449 604h456l-217 647h-4zM995 1903l-266 -289h-137l182 289h221z" />
    <glyph glyph-name="Acircumflex" unicode="&#xc2;" horiz-adv-x="1366" 
d="M977 428h-590l-154 -428h-204l553 1470h225l532 -1470h-217zM449 604h456l-217 647h-4zM682 1804l-135 -190h-162l203 289h190l203 -289h-164z" />
    <glyph glyph-name="Adieresis" unicode="&#xc4;" horiz-adv-x="1366" 
d="M977 428h-590l-154 -428h-204l553 1470h225l532 -1470h-217zM449 604h456l-217 647h-4zM610 1845v-209h-186v209h186zM942 1845v-209h-186v209h186z" />
    <glyph glyph-name="Ccedilla" unicode="&#xc7;" horiz-adv-x="1478" 
d="M543 -416l35 82q79 -31 133 -31q18 0 35 3t36 11t31 26.5t12 45.5q0 41 -33 60.5t-65 19.5q-23 0 -80 -16l-35 39l105 141q-99 3 -188 31.5t-170 89.5t-140 149t-94 218.5t-35 289.5q0 226 81.5 399t238 270t366.5 97q137 0 249 -40t185 -108.5t116 -153t54 -179.5h-192
q-16 74 -51 130.5t-77 88.5t-94.5 52.5t-97.5 27t-92 6.5q-101 0 -187.5 -37.5t-152.5 -108.5t-103.5 -183.5t-37.5 -253.5q0 -107 15.5 -197t51 -168t91 -132t139 -85t190.5 -31q44 0 87 8.5t96.5 35.5t97 69.5t82 117.5t57.5 173h193q-15 -99 -47 -182.5t-71.5 -140.5
t-90 -102t-98.5 -71t-101.5 -44.5t-93.5 -25.5t-80 -10l-68 -92q46 8 64 8q90 0 131 -46.5t41 -106.5q0 -82 -65.5 -135.5t-176.5 -53.5q-92 0 -196 45z" />
    <glyph glyph-name="Eacute" unicode="&#xc9;" horiz-adv-x="1366" 
d="M1262 176v-176h-1086v1470h1071v-176h-872v-450h805v-176h-805v-492h887zM995 1903l-266 -289h-137l182 289h221z" />
    <glyph glyph-name="Edieresis" unicode="&#xcb;" horiz-adv-x="1366" 
d="M1262 176v-176h-1086v1470h1071v-176h-872v-450h805v-176h-805v-492h887zM610 1845v-209h-186v209h186zM942 1845v-209h-186v209h186z" />
    <glyph glyph-name="Iacute" unicode="&#xcd;" horiz-adv-x="569" 
d="M385 1470v-1470h-199v1470h199zM598 1903l-266 -289h-137l182 289h221z" />
    <glyph glyph-name="Icircumflex" unicode="&#xce;" horiz-adv-x="569" 
d="M385 1470v-1470h-199v1470h199zM285 1804l-135 -190h-162l202 289h191l203 -289h-164z" />
    <glyph glyph-name="Oacute" unicode="&#xd3;" horiz-adv-x="1593" 
d="M1309 735q0 264 -138.5 431t-373.5 167t-373.5 -167t-138.5 -431t138.5 -431t373.5 -167t373.5 167t138.5 431zM1513 735q0 -71 -10.5 -143t-35.5 -149t-62.5 -146t-95.5 -131t-130 -107t-170 -71.5t-212 -26.5q-158 0 -284.5 50.5t-205.5 130t-132 184.5t-74 206.5
t-21 202.5t21 202.5t74 206.5t132 184.5t205.5 130t284.5 50.5q114 0 212 -26.5t170 -71.5t130 -107t95.5 -131t62.5 -146t35.5 -149t10.5 -143zM1110 1903l-266 -289h-137l182 289h221z" />
    <glyph glyph-name="Ocircumflex" unicode="&#xd4;" horiz-adv-x="1593" 
d="M1309 735q0 264 -138.5 431t-373.5 167t-373.5 -167t-138.5 -431t138.5 -431t373.5 -167t373.5 167t138.5 431zM1513 735q0 -71 -10.5 -143t-35.5 -149t-62.5 -146t-95.5 -131t-130 -107t-170 -71.5t-212 -26.5q-158 0 -284.5 50.5t-205.5 130t-132 184.5t-74 206.5
t-21 202.5t21 202.5t74 206.5t132 184.5t205.5 130t284.5 50.5q114 0 212 -26.5t170 -71.5t130 -107t95.5 -131t62.5 -146t35.5 -149t10.5 -143zM797 1804l-135 -190h-162l202 289h191l203 -289h-164z" />
    <glyph glyph-name="Otilde" unicode="&#xd5;" horiz-adv-x="1593" 
d="M1309 735q0 264 -138.5 431t-373.5 167t-373.5 -167t-138.5 -431t138.5 -431t373.5 -167t373.5 167t138.5 431zM1513 735q0 -71 -10.5 -143t-35.5 -149t-62.5 -146t-95.5 -131t-130 -107t-170 -71.5t-212 -26.5q-158 0 -284.5 50.5t-205.5 130t-132 184.5t-74 206.5
t-21 202.5t21 202.5t74 206.5t132 184.5t205.5 130t284.5 50.5q114 0 212 -26.5t170 -71.5t130 -107t95.5 -131t62.5 -146t35.5 -149t10.5 -143zM1044 1878h103q-11 -96 -65.5 -159.5t-139.5 -63.5q-42 0 -121 26l-53 19q-89 31 -125 31q-69 0 -96 -91h-98q13 99 64.5 159.5
t148.5 60.5q56 0 139 -31l45 -19q63 -26 96 -26q29 0 49 8.5t30.5 25t14.5 28.5t8 32z" />
    <glyph glyph-name="Odieresis" unicode="&#xd6;" horiz-adv-x="1593" 
d="M1309 735q0 264 -138.5 431t-373.5 167t-373.5 -167t-138.5 -431t138.5 -431t373.5 -167t373.5 167t138.5 431zM1513 735q0 -71 -10.5 -143t-35.5 -149t-62.5 -146t-95.5 -131t-130 -107t-170 -71.5t-212 -26.5q-158 0 -284.5 50.5t-205.5 130t-132 184.5t-74 206.5
t-21 202.5t21 202.5t74 206.5t132 184.5t205.5 130t284.5 50.5q114 0 212 -26.5t170 -71.5t130 -107t95.5 -131t62.5 -146t35.5 -149t10.5 -143zM725 1845v-209h-186v209h186zM1057 1845v-209h-187v209h187z" />
    <glyph glyph-name="multiply" unicode="&#xd7;" horiz-adv-x="1196" 
d="M494 518l-414 414l106 104l412 -411l414 411l104 -104l-411 -414l411 -414l-104 -104l-414 412l-414 -412l-104 104z" />
    <glyph glyph-name="Uacute" unicode="&#xda;" horiz-adv-x="1478" 
d="M1120 1470h199v-954q0 -115 -36.5 -214t-107.5 -176t-186 -121t-262 -44q-143 0 -254 43.5t-177.5 118.5t-100 167.5t-33.5 198.5v981h198v-925q0 -92 22 -164.5t57.5 -117.5t85.5 -74t100.5 -40.5t107.5 -11.5q74 0 138 19t122.5 62.5t92.5 126t34 196.5v929zM1053 1903
l-267 -289h-137l182 289h222z" />
    <glyph glyph-name="Udieresis" unicode="&#xdc;" horiz-adv-x="1478" 
d="M1120 1470h199v-954q0 -115 -36.5 -214t-107.5 -176t-186 -121t-262 -44q-143 0 -254 43.5t-177.5 118.5t-100 167.5t-33.5 198.5v981h198v-925q0 -92 22 -164.5t57.5 -117.5t85.5 -74t100.5 -40.5t107.5 -11.5q74 0 138 19t122.5 62.5t92.5 126t34 196.5v929zM668 1845
v-209h-187v209h187zM999 1845v-209h-186v209h186z" />
    <glyph glyph-name="Yacute" unicode="&#xdd;" horiz-adv-x="1366" 
d="M782 592v-592h-198v592l-555 878h231l422 -706l422 706h233zM995 1903l-266 -289h-137l182 289h221z" />
    <glyph glyph-name="germandbls" unicode="&#xdf;" horiz-adv-x="1251" 
d="M137 0v1090q0 181 124 291t349 110q226 0 358 -100.5t132 -268.5q0 -41 -7.5 -78t-17 -63t-27.5 -52t-29.5 -40t-33.5 -31.5t-28 -22t-25 -16.5q72 -19 128 -76.5t82.5 -125t26.5 -130.5q0 -132 -39 -233t-109.5 -162.5t-163 -92t-204.5 -30.5q-21 0 -38.5 1.5t-26.5 3.5
t-23 5.5t-20 4.5v153q47 -6 90 -6q169 0 258.5 77t89.5 230q0 154 -90.5 220.5t-257.5 66.5q-47 0 -80 -8v162q45 -5 47 -5q89 0 153 19t99 52.5t50.5 73t15.5 87.5q0 102 -81 165.5t-231 63.5q-84 0 -142.5 -20.5t-90 -60.5t-45 -90.5t-13.5 -119.5v-1044h-180z" />
    <glyph glyph-name="aacute" unicode="&#xe1;" 
d="M293 745h-166q11 357 442 357q28 0 60 -3.5t81 -13t91 -30.5t81 -52t62 -83t23 -117v-617q0 -63 59 -63q19 0 59 8v-131q-5 -1 -27 -8t-37 -9.5t-34 -2.5q-57 0 -95.5 13t-57.5 38.5t-26.5 50.5t-10.5 61q-32 -35 -62 -60.5t-77.5 -54t-110.5 -44t-137 -15.5
q-148 0 -242 86t-94 224q0 34 4.5 66.5t24 79t52.5 82t96 66t148 41.5l297 37q42 4 68.5 30t26.5 97q0 174 -252 174q-59 0 -103 -14.5t-68.5 -34t-41.5 -51t-22.5 -54t-10.5 -53.5zM786 371v176q-24 -19 -82 -33.5t-215 -34.5q-33 -5 -58 -10t-59.5 -17.5t-57 -30
t-38.5 -47.5t-16 -69q0 -186 195 -186q129 0 230 73.5t101 178.5zM883 1503l-267 -289h-137l183 289h221z" />
    <glyph glyph-name="acircumflex" unicode="&#xe2;" 
d="M293 745h-166q11 357 442 357q28 0 60 -3.5t81 -13t91 -30.5t81 -52t62 -83t23 -117v-617q0 -63 59 -63q19 0 59 8v-131q-5 -1 -27 -8t-37 -9.5t-34 -2.5q-57 0 -95.5 13t-57.5 38.5t-26.5 50.5t-10.5 61q-32 -35 -62 -60.5t-77.5 -54t-110.5 -44t-137 -15.5
q-148 0 -242 86t-94 224q0 34 4.5 66.5t24 79t52.5 82t96 66t148 41.5l297 37q42 4 68.5 30t26.5 97q0 174 -252 174q-59 0 -103 -14.5t-68.5 -34t-41.5 -51t-22.5 -54t-10.5 -53.5zM786 371v176q-24 -19 -82 -33.5t-215 -34.5q-33 -5 -58 -10t-59.5 -17.5t-57 -30
t-38.5 -47.5t-16 -69q0 -186 195 -186q129 0 230 73.5t101 178.5zM569 1405l-135 -191h-162l203 289h191l202 -289h-163z" />
    <glyph glyph-name="adieresis" unicode="&#xe4;" 
d="M293 745h-166q11 357 442 357q28 0 60 -3.5t81 -13t91 -30.5t81 -52t62 -83t23 -117v-617q0 -63 59 -63q19 0 59 8v-131q-5 -1 -27 -8t-37 -9.5t-34 -2.5q-57 0 -95.5 13t-57.5 38.5t-26.5 50.5t-10.5 61q-32 -35 -62 -60.5t-77.5 -54t-110.5 -44t-137 -15.5
q-148 0 -242 86t-94 224q0 34 4.5 66.5t24 79t52.5 82t96 66t148 41.5l297 37q42 4 68.5 30t26.5 97q0 174 -252 174q-59 0 -103 -14.5t-68.5 -34t-41.5 -51t-22.5 -54t-10.5 -53.5zM786 371v176q-24 -19 -82 -33.5t-215 -34.5q-33 -5 -58 -10t-59.5 -17.5t-57 -30
t-38.5 -47.5t-16 -69q0 -186 195 -186q129 0 230 73.5t101 178.5zM498 1446v-209h-187v209h187zM829 1446v-209h-186v209h186z" />
    <glyph glyph-name="ccedilla" unicode="&#xe7;" horiz-adv-x="1024" 
d="M317 -416l35 82q79 -31 133 -31q26 0 48.5 5t44.5 25.5t22 55.5q0 41 -33 60.5t-65 19.5q-23 0 -80 -16l-35 39l111 149q-203 15 -320 162t-117 371q0 127 31 233.5t92.5 188.5t161.5 128t229 46q81 0 148 -23t111.5 -61t76 -89.5t47 -105.5t19.5 -112h-174
q-37 229 -254 229q-80 0 -139.5 -35.5t-92 -95.5t-48 -128t-15.5 -144q0 -412 293 -412q93 0 163 67t93 187h174q-5 -52 -19.5 -102t-44 -102.5t-71 -93.5t-105 -70t-141.5 -36l-76 -102q46 8 64 8q90 0 131 -46.5t41 -106.5q0 -82 -65.5 -135.5t-176.5 -53.5q-93 0 -197 45
z" />
    <glyph glyph-name="eacute" unicode="&#xe9;" 
d="M862 336h180q-4 -33 -21 -79t-62 -109.5t-107 -104.5q-32 -21 -59.5 -34.5t-89.5 -26.5t-142 -13q-221 0 -350 150t-129 387q0 127 31 233.5t92.5 188.5t161.5 128t229 46q226 0 343.5 -166.5t117.5 -458.5h-783q0 -169 79 -260.5t233 -91.5q116 0 193.5 70t82.5 141z
M274 621h596q-4 66 -20.5 120.5t-50 100.5t-91.5 72t-137 26q-123 0 -210 -96t-87 -223zM883 1503l-267 -289h-137l183 289h221z" />
    <glyph glyph-name="edieresis" unicode="&#xeb;" 
d="M862 336h180q-4 -33 -21 -79t-62 -109.5t-107 -104.5q-32 -21 -59.5 -34.5t-89.5 -26.5t-142 -13q-221 0 -350 150t-129 387q0 127 31 233.5t92.5 188.5t161.5 128t229 46q226 0 343.5 -166.5t117.5 -458.5h-783q0 -169 79 -260.5t233 -91.5q116 0 193.5 70t82.5 141z
M274 621h596q-4 66 -20.5 120.5t-50 100.5t-91.5 72t-137 26q-123 0 -210 -96t-87 -223zM498 1446v-209h-187v209h187zM829 1446v-209h-186v209h186z" />
    <glyph glyph-name="iacute" unicode="&#xed;" horiz-adv-x="569" 
d="M375 1071v-1071h-180v1071h180zM598 1503l-266 -289h-137l182 289h221z" />
    <glyph glyph-name="icircumflex" unicode="&#xee;" horiz-adv-x="569" 
d="M375 1071v-1071h-180v1071h180zM285 1405l-135 -191h-162l202 289h191l203 -289h-164z" />
    <glyph glyph-name="oacute" unicode="&#xf3;" 
d="M72 537q0 85 18.5 165t58.5 153t97 127.5t140.5 87t182.5 32.5q123 0 221 -49t157 -130.5t89.5 -180t30.5 -205.5q0 -85 -18.5 -165t-58.5 -153.5t-97.5 -128t-141 -87t-182.5 -32.5t-182.5 32.5t-140.5 87t-97 128t-58.5 153.5t-18.5 165zM258 537q0 -48 7 -98
t28.5 -108t54.5 -101.5t90 -73t131 -29.5t131.5 29.5t90.5 73.5t54 101.5t28.5 107.5t7.5 98t-7.5 98t-28.5 107.5t-54 101t-90.5 73t-131.5 29.5t-131 -29.5t-90 -73t-54.5 -101.5t-28.5 -107.5t-7 -97.5zM883 1503l-267 -289h-137l183 289h221z" />
    <glyph glyph-name="ocircumflex" unicode="&#xf4;" 
d="M72 537q0 85 18.5 165t58.5 153t97 127.5t140.5 87t182.5 32.5q123 0 221 -49t157 -130.5t89.5 -180t30.5 -205.5q0 -85 -18.5 -165t-58.5 -153.5t-97.5 -128t-141 -87t-182.5 -32.5t-182.5 32.5t-140.5 87t-97 128t-58.5 153.5t-18.5 165zM258 537q0 -48 7 -98
t28.5 -108t54.5 -101.5t90 -73t131 -29.5t131.5 29.5t90.5 73.5t54 101.5t28.5 107.5t7.5 98t-7.5 98t-28.5 107.5t-54 101t-90.5 73t-131.5 29.5t-131 -29.5t-90 -73t-54.5 -101.5t-28.5 -107.5t-7 -97.5zM569 1405l-135 -191h-162l203 289h191l202 -289h-163z" />
    <glyph glyph-name="otilde" unicode="&#xf5;" 
d="M72 537q0 85 18.5 165t58.5 153t97 127.5t140.5 87t182.5 32.5q123 0 221 -49t157 -130.5t89.5 -180t30.5 -205.5q0 -85 -18.5 -165t-58.5 -153.5t-97.5 -128t-141 -87t-182.5 -32.5t-182.5 32.5t-140.5 87t-97 128t-58.5 153.5t-18.5 165zM258 537q0 -48 7 -98
t28.5 -108t54.5 -101.5t90 -73t131 -29.5t131.5 29.5t90.5 73.5t54 101.5t28.5 107.5t7.5 98t-7.5 98t-28.5 107.5t-54 101t-90.5 73t-131.5 29.5t-131 -29.5t-90 -73t-54.5 -101.5t-28.5 -107.5t-7 -97.5zM817 1479h103q-11 -97 -65.5 -160.5t-139.5 -63.5q-39 0 -121 27
l-53 18q-89 31 -125 31q-70 0 -97 -90h-98q13 99 64.5 159t148.5 60q58 0 139 -30l45 -19q66 -27 97 -27q29 0 49 8.5t30.5 25.5t14.5 29t8 32z" />
    <glyph glyph-name="odieresis" unicode="&#xf6;" 
d="M72 537q0 85 18.5 165t58.5 153t97 127.5t140.5 87t182.5 32.5q123 0 221 -49t157 -130.5t89.5 -180t30.5 -205.5q0 -85 -18.5 -165t-58.5 -153.5t-97.5 -128t-141 -87t-182.5 -32.5t-182.5 32.5t-140.5 87t-97 128t-58.5 153.5t-18.5 165zM258 537q0 -48 7 -98
t28.5 -108t54.5 -101.5t90 -73t131 -29.5t131.5 29.5t90.5 73.5t54 101.5t28.5 107.5t7.5 98t-7.5 98t-28.5 107.5t-54 101t-90.5 73t-131.5 29.5t-131 -29.5t-90 -73t-54.5 -101.5t-28.5 -107.5t-7 -97.5zM498 1446v-209h-187v209h187zM829 1446v-209h-186v209h186z" />
    <glyph glyph-name="divide" unicode="&#xf7;" horiz-adv-x="1196" 
d="M1116 442h-1036v150h1036v-150zM459 934q0 58 41.5 98.5t97.5 40.5q57 0 98 -41t41 -98q0 -54 -41.5 -96.5t-97.5 -42.5t-97.5 41t-41.5 98zM459 100q0 58 41.5 99t97.5 41q57 0 98 -41.5t41 -98.5q0 -54 -41.5 -96.5t-97.5 -42.5t-97.5 41t-41.5 98z" />
    <glyph glyph-name="uacute" unicode="&#xfa;" 
d="M1001 0h-170v156l-4 4q-60 -98 -138 -144.5t-202 -46.5q-50 0 -97 9.5t-93.5 34t-80.5 61t-55.5 95t-21.5 132.5v770h180v-711q0 -235 207 -235q81 0 141 33t92 87.5t47 113.5t15 122v590h180v-1071zM883 1503l-267 -289h-137l183 289h221z" />
    <glyph glyph-name="udieresis" unicode="&#xfc;" 
d="M1001 0h-170v156l-4 4q-60 -98 -138 -144.5t-202 -46.5q-50 0 -97 9.5t-93.5 34t-80.5 61t-55.5 95t-21.5 132.5v770h180v-711q0 -235 207 -235q81 0 141 33t92 87.5t47 113.5t15 122v590h180v-1071zM498 1446v-209h-187v209h187zM829 1446v-209h-186v209h186z" />
    <glyph glyph-name="yacute" unicode="&#xfd;" horiz-adv-x="1024" 
d="M516 199l287 872h198q-275 -770 -385 -1051q-37 -94 -57.5 -145.5t-47.5 -108.5t-41.5 -82.5t-40 -54.5t-43 -37.5t-50.5 -18t-61.5 -10.5t-77.5 -1q-18 0 -76 16v164q52 -18 108 -18q19 0 31.5 1t26 7.5t21.5 11t20 22t18.5 29.5t20.5 44.5t23.5 56.5t29.5 75l-397 1100
h204l285 -872h4zM825 1503l-266 -289h-137l182 289h221z" />
    <glyph glyph-name="Amacron" unicode="&#x100;" horiz-adv-x="1366" 
d="M977 428h-590l-154 -428h-204l553 1470h225l532 -1470h-217zM449 604h456l-217 647h-4zM1004 1800v-117h-642v117h642z" />
    <glyph glyph-name="amacron" unicode="&#x101;" 
d="M293 745h-166q11 357 442 357q28 0 60 -3.5t81 -13t91 -30.5t81 -52t62 -83t23 -117v-617q0 -63 59 -63q19 0 59 8v-131q-5 -1 -27 -8t-37 -9.5t-34 -2.5q-57 0 -95.5 13t-57.5 38.5t-26.5 50.5t-10.5 61q-32 -35 -62 -60.5t-77.5 -54t-110.5 -44t-137 -15.5
q-148 0 -242 86t-94 224q0 34 4.5 66.5t24 79t52.5 82t96 66t148 41.5l297 37q42 4 68.5 30t26.5 97q0 174 -252 174q-59 0 -103 -14.5t-68.5 -34t-41.5 -51t-22.5 -54t-10.5 -53.5zM786 371v176q-24 -19 -82 -33.5t-215 -34.5q-33 -5 -58 -10t-59.5 -17.5t-57 -30
t-38.5 -47.5t-16 -69q0 -186 195 -186q129 0 230 73.5t101 178.5zM891 1401v-117h-641v117h641z" />
    <glyph glyph-name="Abreve" unicode="&#x102;" horiz-adv-x="1366" 
d="M977 428h-590l-154 -428h-204l553 1470h225l532 -1470h-217zM449 604h456l-217 647h-4zM901 1896h98q-32 -278 -325 -278q-56 0 -101.5 12t-75.5 30t-53.5 45.5t-36 50.5t-21.5 54t-12 47.5t-5 38.5h100q22 -70 49 -98q56 -63 172 -63q47 0 83.5 11.5t56.5 26t36 40.5
t22 41.5t13 41.5z" />
    <glyph glyph-name="abreve" unicode="&#x103;" 
d="M293 745h-166q11 357 442 357q28 0 60 -3.5t81 -13t91 -30.5t81 -52t62 -83t23 -117v-617q0 -63 59 -63q19 0 59 8v-131q-5 -1 -27 -8t-37 -9.5t-34 -2.5q-57 0 -95.5 13t-57.5 38.5t-26.5 50.5t-10.5 61q-32 -35 -62 -60.5t-77.5 -54t-110.5 -44t-137 -15.5
q-148 0 -242 86t-94 224q0 34 4.5 66.5t24 79t52.5 82t96 66t148 41.5l297 37q42 4 68.5 30t26.5 97q0 174 -252 174q-59 0 -103 -14.5t-68.5 -34t-41.5 -51t-22.5 -54t-10.5 -53.5zM786 371v176q-24 -19 -82 -33.5t-215 -34.5q-33 -5 -58 -10t-59.5 -17.5t-57 -30
t-38.5 -47.5t-16 -69q0 -186 195 -186q129 0 230 73.5t101 178.5zM768 1497h98q-32 -278 -325 -278q-56 0 -101.5 12t-75.5 30t-53.5 45.5t-36 50.5t-21.5 54t-12 47.5t-5 38.5h100q22 -70 49 -98q57 -64 172 -64q47 0 83.5 11.5t56.5 26.5t36 41t21.5 41.5t13.5 41.5z" />
    <glyph glyph-name="Aogonek" unicode="&#x104;" horiz-adv-x="1366" 
d="M449 604h456l-217 647h-4zM977 428h-590l-154 -428h-204l553 1470h225l532 -1470q-78 -13 -135.5 -41.5t-88.5 -65.5t-45.5 -75.5t-14.5 -79.5q0 -32 11.5 -54.5t31.5 -32t36.5 -13t34.5 -3.5q55 0 134 31l34 -82q-109 -45 -196 -45q-111 0 -176.5 53.5t-65.5 135.5
q0 29 8.5 62t30 75.5t69 79t115.5 55.5z" />
    <glyph glyph-name="aogonek" unicode="&#x105;" 
d="M786 371v176q-24 -19 -82 -33.5t-215 -34.5q-33 -5 -58 -10t-59.5 -17.5t-57 -30t-38.5 -47.5t-16 -69q0 -186 195 -186q129 0 230 73.5t101 178.5zM1085 -324l35 -82q-109 -45 -196 -45q-111 0 -176.5 53.5t-65.5 135.5q0 28 7.5 59.5t26.5 71t61 75t102 56.5
q-74 34 -82 143q-32 -35 -62 -60.5t-77.5 -54t-110.5 -44t-137 -15.5q-148 0 -242 86t-94 224q0 34 4.5 66.5t24 79t52.5 82t96 66t148 41.5l297 37q42 4 68.5 30t26.5 97q0 174 -252 174q-59 0 -103 -14.5t-68.5 -34t-41.5 -51t-22.5 -54t-10.5 -53.5h-166q11 357 442 357
q28 0 60 -3.5t81 -13t91 -30.5t81 -52t62 -83t23 -117v-617q0 -63 59 -63q19 0 59 8v-131q-46 -11 -77 -23q-100 -40 -135 -94t-35 -135q0 -102 114 -102q56 0 133 30z" />
    <glyph glyph-name="Cacute" unicode="&#x106;" horiz-adv-x="1478" 
d="M1380 1028h-192q-16 74 -51 130.5t-77 88.5t-94.5 52.5t-97.5 27t-92 6.5q-101 0 -187.5 -37.5t-152.5 -108.5t-103.5 -183.5t-37.5 -253.5q0 -107 15.5 -197t51 -168t91 -132t139 -85t190.5 -31q44 0 87 8.5t96.5 35.5t97 69.5t82 117.5t57.5 173h193
q-17 -114 -56.5 -206.5t-87 -151.5t-109.5 -103t-115.5 -66t-113.5 -35t-94 -15.5t-67 -2.5q-103 0 -197 26.5t-180 86.5t-148.5 149t-99.5 222.5t-37 297.5q0 226 81.5 399t238 270t366.5 97q137 0 249 -40t185 -108.5t116 -153t54 -179.5zM1053 1903l-267 -289h-137
l182 289h222z" />
    <glyph glyph-name="cacute" unicode="&#x107;" horiz-adv-x="1024" 
d="M977 711h-174q-37 229 -254 229q-80 0 -139.5 -35.5t-92 -95.5t-48 -128t-15.5 -144q0 -412 293 -412q93 0 163 67t93 187h174q-6 -55 -22 -108t-49.5 -109t-80.5 -98t-120.5 -68.5t-163.5 -26.5q-221 0 -350.5 150t-129.5 387q0 127 31 233.5t92.5 188.5t161.5 128
t229 46q81 0 148 -23t111.5 -61t76 -89.5t47 -105.5t19.5 -112zM825 1503l-266 -289h-137l182 289h221z" />
    <glyph glyph-name="Ccaron" unicode="&#x10c;" horiz-adv-x="1478" 
d="M1380 1028h-192q-16 74 -51 130.5t-77 88.5t-94.5 52.5t-97.5 27t-92 6.5q-101 0 -187.5 -37.5t-152.5 -108.5t-103.5 -183.5t-37.5 -253.5q0 -107 15.5 -197t51 -168t91 -132t139 -85t190.5 -31q44 0 87 8.5t96.5 35.5t97 69.5t82 117.5t57.5 173h193
q-17 -114 -56.5 -206.5t-87 -151.5t-109.5 -103t-115.5 -66t-113.5 -35t-94 -15.5t-67 -2.5q-103 0 -197 26.5t-180 86.5t-148.5 149t-99.5 222.5t-37 297.5q0 226 81.5 399t238 270t366.5 97q137 0 249 -40t185 -108.5t116 -153t54 -179.5zM604 1903l135 -191l135 191h164
l-202 -289h-191l-203 289h162z" />
    <glyph glyph-name="ccaron" unicode="&#x10d;" horiz-adv-x="1024" 
d="M977 711h-174q-37 229 -254 229q-80 0 -139.5 -35.5t-92 -95.5t-48 -128t-15.5 -144q0 -412 293 -412q93 0 163 67t93 187h174q-6 -55 -22 -108t-49.5 -109t-80.5 -98t-120.5 -68.5t-163.5 -26.5q-221 0 -350.5 150t-129.5 387q0 127 31 233.5t92.5 188.5t161.5 128
t229 46q81 0 148 -23t111.5 -61t76 -89.5t47 -105.5t19.5 -112zM377 1503l135 -190l135 190h164l-203 -289h-190l-203 289h162z" />
    <glyph glyph-name="Dcaron" unicode="&#x10e;" horiz-adv-x="1478" 
d="M166 0v1470h596q284 0 451 -196.5t167 -517.5q0 -105 -18 -205.5t-64 -202.5t-114.5 -177.5t-179.5 -123t-250 -47.5h-588zM365 1300v-1130h385q197 0 311.5 149.5t114.5 423.5q0 273 -117 415t-324 142h-370zM522 1903l135 -191l136 191h163l-202 -289h-191l-203 289
h162z" />
    <glyph glyph-name="dcaron" unicode="&#x10f;" horiz-adv-x="1316" 
d="M1149 1276v194h192v-180q0 -71 -17 -125.5t-39 -82.5t-53.5 -47t-47.5 -23.5t-35 -7.5v86q98 8 98 186h-98zM1022 1470v-1470h-170v147h-4q-96 -178 -305 -178q-105 0 -188.5 38t-135.5 98.5t-86 141t-47.5 159.5t-13.5 161q0 152 51 272t153.5 191.5t241.5 71.5
q56 0 105 -14t79 -31t61.5 -47.5t43 -46t31.5 -43.5h4v550h180zM258 539q0 -186 73.5 -300t215.5 -114q48 0 95 17t93.5 55t75.5 112.5t29 175.5q0 455 -289 455q-58 0 -104 -15.5t-76 -39.5t-52 -60.5t-33.5 -70t-18 -77t-8 -72.5t-1.5 -66z" />
    <glyph glyph-name="Dcroat" unicode="&#x110;" horiz-adv-x="1478" 
d="M758 844v-176h-393v-498h385q197 0 311.5 149.5t114.5 423.5q0 273 -117 415t-324 142h-370v-456h393zM0 668v176h166v626h596q284 0 451 -196.5t167 -517.5q0 -28 -1.5 -59.5t-9 -86t-19.5 -106.5t-35 -114.5t-54.5 -116t-79.5 -105t-107.5 -88t-141.5 -58.5t-178 -22
h-588v668h-166z" />
    <glyph glyph-name="dcroat" unicode="&#x111;" 
d="M258 539q0 -186 73.5 -300t215.5 -114q48 0 95 17t93.5 55t75.5 112.5t29 175.5q0 455 -289 455q-58 0 -104 -15.5t-76 -39.5t-52 -60.5t-33.5 -70t-18 -77t-8 -72.5t-1.5 -66zM1126 1335v-147h-104v-1188h-170v147h-4q-96 -178 -305 -178q-105 0 -188.5 38t-135.5 98.5
t-86 141t-47.5 159.5t-13.5 161q0 152 51 272t153.5 191.5t241.5 71.5q56 0 105 -14t79 -31t61.5 -47.5t43 -46t31.5 -43.5h4v268h-371v147h371v135h180v-135h104z" />
    <glyph glyph-name="Emacron" unicode="&#x112;" horiz-adv-x="1366" 
d="M1262 176v-176h-1086v1470h1071v-176h-872v-450h805v-176h-805v-492h887zM1004 1800v-117h-642v117h642z" />
    <glyph glyph-name="emacron" unicode="&#x113;" 
d="M862 336h180q-4 -33 -21 -79t-62 -109.5t-107 -104.5q-32 -21 -59.5 -34.5t-89.5 -26.5t-142 -13q-221 0 -350 150t-129 387q0 127 31 233.5t92.5 188.5t161.5 128t229 46q226 0 343.5 -166.5t117.5 -458.5h-783q0 -169 79 -260.5t233 -91.5q116 0 193.5 70t82.5 141z
M274 621h596q-4 66 -20.5 120.5t-50 100.5t-91.5 72t-137 26q-123 0 -210 -96t-87 -223zM891 1401v-117h-641v117h641z" />
    <glyph glyph-name="Edotaccent" unicode="&#x116;" horiz-adv-x="1366" 
d="M1262 176v-176h-1086v1470h1071v-176h-872v-450h805v-176h-805v-492h887zM776 1845v-209h-186v209h186z" />
    <glyph glyph-name="edotaccent" unicode="&#x117;" 
d="M862 336h180q-4 -33 -21 -79t-62 -109.5t-107 -104.5q-32 -21 -59.5 -34.5t-89.5 -26.5t-142 -13q-221 0 -350 150t-129 387q0 127 31 233.5t92.5 188.5t161.5 128t229 46q226 0 343.5 -166.5t117.5 -458.5h-783q0 -169 79 -260.5t233 -91.5q116 0 193.5 70t82.5 141z
M274 621h596q-4 66 -20.5 120.5t-50 100.5t-91.5 72t-137 26q-123 0 -210 -96t-87 -223zM664 1446v-209h-187v209h187z" />
    <glyph glyph-name="Eogonek" unicode="&#x118;" horiz-adv-x="1366" 
d="M1262 -324l34 -82q-109 -45 -196 -45q-111 0 -176.5 53.5t-65.5 135.5q0 28 7.5 59.5t26.5 71t60.5 75t100.5 56.5h-877v1470h1071v-176h-872v-450h805v-176h-805v-492h887v-176q-48 0 -123 -47q-61 -39 -93 -86t-32 -119q0 -102 114 -102q58 0 134 30z" />
    <glyph glyph-name="eogonek" unicode="&#x119;" 
d="M274 621h596q-4 66 -20.5 120.5t-50 100.5t-91.5 72t-137 26q-123 0 -210 -96t-87 -223zM862 336h180q-7 -56 -55 -144t-135 -149q-147 -102 -193.5 -163.5t-46.5 -141.5q0 -32 12 -54.5t31.5 -32t36.5 -13t35 -3.5q54 0 133 31l35 -82q-109 -45 -197 -45
q-111 0 -176 53.5t-65 135.5q0 23 5.5 48t19.5 59t46.5 70t79.5 66q-14 -2 -47 -2q-221 0 -350 150t-129 387q0 127 31 233.5t92.5 188.5t161.5 128t229 46q226 0 343.5 -166.5t117.5 -458.5h-783q0 -169 79 -260.5t233 -91.5q116 0 193.5 70t82.5 141z" />
    <glyph glyph-name="Ecaron" unicode="&#x11a;" horiz-adv-x="1366" 
d="M1262 176v-176h-1086v1470h1071v-176h-872v-450h805v-176h-805v-492h887zM547 1903l135 -191l135 191h164l-203 -289h-190l-203 289h162z" />
    <glyph glyph-name="ecaron" unicode="&#x11b;" 
d="M862 336h180q-4 -33 -21 -79t-62 -109.5t-107 -104.5q-32 -21 -59.5 -34.5t-89.5 -26.5t-142 -13q-221 0 -350 150t-129 387q0 127 31 233.5t92.5 188.5t161.5 128t229 46q226 0 343.5 -166.5t117.5 -458.5h-783q0 -169 79 -260.5t233 -91.5q116 0 193.5 70t82.5 141z
M274 621h596q-4 66 -20.5 120.5t-50 100.5t-91.5 72t-137 26q-123 0 -210 -96t-87 -223zM434 1503l135 -190l136 190h163l-202 -289h-191l-203 289h162z" />
    <glyph glyph-name="Gcommaaccent" unicode="&#x122;" horiz-adv-x="1593" 
d="M797 616v170h645v-786h-129l-47 190q-76 -105 -206 -167t-280 -62q-90 0 -164.5 14.5t-128.5 41.5t-88.5 52t-68.5 58q-54 51 -95 107.5t-65.5 114.5t-40 108.5t-21.5 109t-8 95t-2 86.5q0 110 26 217t82 205.5t136 173.5t197 120t256 45q106 0 207.5 -30t189.5 -88
t148.5 -153t76.5 -214h-192q-18 74 -55 130.5t-80.5 89.5t-98.5 53.5t-104.5 28t-102.5 7.5q-100 0 -187 -39.5t-152.5 -113.5t-103.5 -188t-38 -255q0 -96 13 -178.5t47.5 -163.5t88 -137.5t141 -91.5t200.5 -35q182 0 301 94q91 72 126 166.5t35 224.5h-458zM719 -248v166
h192v-145q0 -203 -192 -234v70q53 4 75.5 45t22.5 98h-98z" />
    <glyph glyph-name="gcommaaccent" unicode="&#x123;" 
d="M666 1409v-195h-193v181q0 116 43.5 189.5t149.5 98.5v-86q-34 -5 -55.5 -25t-30 -52t-11 -55.5t-2.5 -55.5h99zM268 539q0 -186 73.5 -300t215.5 -114q48 0 95 17t93.5 55t75.5 112.5t29 175.5q0 455 -289 455q-58 0 -104 -15.5t-76 -39.5t-52 -60.5t-33.5 -70t-18 -77
t-8 -72.5t-1.5 -66zM1022 1071v-983q0 -36 -0.5 -59.5t-5 -70t-13 -79.5t-26 -78.5t-41.5 -78t-62.5 -67.5t-86.5 -56.5t-115.5 -35.5t-147.5 -14q-46 0 -89 5.5t-99 25.5t-99 53t-77.5 94t-44.5 142h180q33 -170 242 -170q87 0 148.5 28t91 63t45.5 95t18 94t2 90v7v45h-4
v-8q-39 -63 -111.5 -103.5t-173.5 -40.5q-105 0 -188.5 38t-135.5 98.5t-86 141t-47.5 159.5t-13.5 161q0 152 51 272t153.5 191.5t241.5 71.5q56 0 105 -14t79 -31t61.5 -47.5t43 -46t31.5 -43.5h4v151h170z" />
    <glyph glyph-name="Imacron" unicode="&#x12a;" horiz-adv-x="569" 
d="M385 1470v-1470h-199v1470h199zM606 1800v-117h-641v117h641z" />
    <glyph glyph-name="imacron" unicode="&#x12b;" horiz-adv-x="569" 
d="M375 1071v-1071h-180v1071h180zM557 1401v-117h-547v117h547z" />
    <glyph glyph-name="Iogonek" unicode="&#x12e;" horiz-adv-x="569" 
d="M397 -334l35 -82q-109 -45 -196 -45q-111 0 -176.5 53.5t-65.5 135.5q0 22 4 44.5t18 55.5t36.5 61.5t64.5 58.5t98 52h-29v1470h199v-1470h-31q-122 -73 -163 -128t-41 -134q0 -32 11.5 -54.5t31.5 -32t36.5 -13t34.5 -3.5q54 0 133 31z" />
    <glyph glyph-name="iogonek" unicode="&#x12f;" horiz-adv-x="454" 
d="M317 1266h-180v204h180v-204zM340 -334l35 -82q-109 -45 -197 -45q-111 0 -176 53.5t-65 135.5q0 28 8 60.5t29.5 75t69.5 79.5t116 57h-23v1071h180v-1071h-20q-122 -73 -163.5 -128t-41.5 -134q0 -32 12 -54.5t31.5 -32t36.5 -13t35 -3.5q54 0 133 31z" />
    <glyph glyph-name="Kcommaaccent" unicode="&#x136;" horiz-adv-x="1366" 
d="M354 516v-516h-198v1470h198v-712l713 712h274l-612 -593l629 -877h-258l-514 737zM606 -248v166h193v-145q0 -203 -193 -234v70q53 4 76 45.5t23 97.5h-99z" />
    <glyph glyph-name="kcommaaccent" unicode="&#x137;" horiz-adv-x="1024" 
d="M592 672l434 -672h-231l-334 541l-150 -135v-406h-174v1470h174v-852l461 453h229zM434 -248v166h193v-145q0 -203 -193 -234v70q53 4 75.5 45t22.5 98h-98z" />
    <glyph glyph-name="Lacute" unicode="&#x139;" 
d="M354 1470v-1294h746v-176h-944v1470h198zM635 1903l-266 -289h-138l183 289h221z" />
    <glyph glyph-name="lacute" unicode="&#x13a;" horiz-adv-x="454" 
d="M317 1470v-1470h-180v1470h180zM541 1903l-267 -289h-137l182 289h222z" />
    <glyph glyph-name="Lcommaaccent" unicode="&#x13b;" 
d="M354 1470v-1294h746v-176h-944v1470h198zM492 -248v166h192v-145q0 -203 -192 -234v70q53 4 75.5 45t22.5 98h-98z" />
    <glyph glyph-name="lcommaaccent" unicode="&#x13c;" horiz-adv-x="454" 
d="M317 1470v-1470h-180v1470h180zM150 -248v166h192v-145q0 -203 -192 -234v70q53 4 75.5 45t22.5 98h-98z" />
    <glyph glyph-name="Lcaron" unicode="&#x13d;" 
d="M354 1470v-1294h746v-176h-944v1470h198zM662 1276v194h192v-180q0 -71 -17 -125.5t-39 -82.5t-53.5 -47t-47.5 -23.5t-35 -7.5v86q98 8 98 186h-98z" />
    <glyph glyph-name="lcaron" unicode="&#x13e;" horiz-adv-x="612" 
d="M317 1470v-1470h-180v1470h180zM444 1276v194h193v-180q0 -71 -17.5 -125.5t-39 -82.5t-53.5 -47t-48 -23.5t-35 -7.5v86q99 8 99 186h-99z" />
    <glyph glyph-name="Lslash" unicode="&#x141;" 
d="M596 1065v-119l-242 -137v-633h746v-176h-944v705l-197 -113v119l197 112v647h198v-542z" />
    <glyph glyph-name="lslash" unicode="&#x142;" horiz-adv-x="454" 
d="M496 891l-179 -103v-788h-180v694l-178 -102v119l178 102v657h180v-563l179 103v-119z" />
    <glyph glyph-name="Nacute" unicode="&#x143;" horiz-adv-x="1478" 
d="M1130 283v1187h193v-1470h-223l-748 1188h-4v-1188h-192v1470h235l735 -1187h4zM1053 1903l-267 -289h-137l182 289h222z" />
    <glyph glyph-name="nacute" unicode="&#x144;" 
d="M1006 729v-729h-181v659q0 146 -51 213.5t-178 67.5q-34 0 -69 -8.5t-74.5 -33.5t-69.5 -63t-50 -103t-20 -148v-584h-180v1071h170v-151h4q125 182 324 182q54 0 103 -9t100 -34.5t88 -66t60.5 -108t23.5 -155.5zM883 1503l-267 -289h-137l183 289h221z" />
    <glyph glyph-name="Ncommaaccent" unicode="&#x145;" horiz-adv-x="1478" 
d="M1130 283v1187h193v-1470h-223l-748 1188h-4v-1188h-192v1470h235l735 -1187h4zM662 -248v166h192v-145q0 -203 -192 -234v70q53 4 75.5 45t22.5 98h-98z" />
    <glyph glyph-name="ncommaaccent" unicode="&#x146;" 
d="M1006 729v-729h-181v659q0 146 -51 213.5t-178 67.5q-34 0 -69 -8.5t-74.5 -33.5t-69.5 -63t-50 -103t-20 -148v-584h-180v1071h170v-151h4q125 182 324 182q54 0 103 -9t100 -34.5t88 -66t60.5 -108t23.5 -155.5zM492 -248v166h192v-145q0 -203 -192 -234v70
q53 4 75.5 45t22.5 98h-98z" />
    <glyph glyph-name="Ncaron" unicode="&#x147;" horiz-adv-x="1478" 
d="M1130 283v1187h193v-1470h-223l-748 1188h-4v-1188h-192v1470h235l735 -1187h4zM604 1903l135 -191l135 191h164l-202 -289h-191l-203 289h162z" />
    <glyph glyph-name="ncaron" unicode="&#x148;" 
d="M1006 729v-729h-181v659q0 146 -51 213.5t-178 67.5q-34 0 -69 -8.5t-74.5 -33.5t-69.5 -63t-50 -103t-20 -148v-584h-180v1071h170v-151h4q125 182 324 182q54 0 103 -9t100 -34.5t88 -66t60.5 -108t23.5 -155.5zM434 1503l135 -190l136 190h163l-202 -289h-191
l-203 289h162z" />
    <glyph glyph-name="Omacron" unicode="&#x14c;" horiz-adv-x="1593" 
d="M1309 735q0 264 -138.5 431t-373.5 167t-373.5 -167t-138.5 -431t138.5 -431t373.5 -167t373.5 167t138.5 431zM1513 735q0 -71 -10.5 -143t-35.5 -149t-62.5 -146t-95.5 -131t-130 -107t-170 -71.5t-212 -26.5q-158 0 -284.5 50.5t-205.5 130t-132 184.5t-74 206.5
t-21 202.5t21 202.5t74 206.5t132 184.5t205.5 130t284.5 50.5q114 0 212 -26.5t170 -71.5t130 -107t95.5 -131t62.5 -146t35.5 -149t10.5 -143zM1118 1800v-117h-641v117h641z" />
    <glyph glyph-name="omacron" unicode="&#x14d;" 
d="M72 537q0 85 18.5 165t58.5 153t97 127.5t140.5 87t182.5 32.5q123 0 221 -49t157 -130.5t89.5 -180t30.5 -205.5q0 -85 -18.5 -165t-58.5 -153.5t-97.5 -128t-141 -87t-182.5 -32.5t-182.5 32.5t-140.5 87t-97 128t-58.5 153.5t-18.5 165zM258 537q0 -48 7 -98
t28.5 -108t54.5 -101.5t90 -73t131 -29.5t131.5 29.5t90.5 73.5t54 101.5t28.5 107.5t7.5 98t-7.5 98t-28.5 107.5t-54 101t-90.5 73t-131.5 29.5t-131 -29.5t-90 -73t-54.5 -101.5t-28.5 -107.5t-7 -97.5zM891 1401v-117h-641v117h641z" />
    <glyph glyph-name="Ohungarumlaut" unicode="&#x150;" horiz-adv-x="1593" 
d="M1309 735q0 264 -138.5 431t-373.5 167t-373.5 -167t-138.5 -431t138.5 -431t373.5 -167t373.5 167t138.5 431zM1513 735q0 -71 -10.5 -143t-35.5 -149t-62.5 -146t-95.5 -131t-130 -107t-170 -71.5t-212 -26.5q-158 0 -284.5 50.5t-205.5 130t-132 184.5t-74 206.5
t-21 202.5t21 202.5t74 206.5t132 184.5t205.5 130t284.5 50.5q114 0 212 -26.5t170 -71.5t130 -107t95.5 -131t62.5 -146t35.5 -149t10.5 -143zM926 1903l-269 -289h-137l182 289h224zM1294 1903l-268 -289h-137l182 289h223z" />
    <glyph glyph-name="ohungarumlaut" unicode="&#x151;" 
d="M72 537q0 85 18.5 165t58.5 153t97 127.5t140.5 87t182.5 32.5q123 0 221 -49t157 -130.5t89.5 -180t30.5 -205.5q0 -85 -18.5 -165t-58.5 -153.5t-97.5 -128t-141 -87t-182.5 -32.5t-182.5 32.5t-140.5 87t-97 128t-58.5 153.5t-18.5 165zM258 537q0 -48 7 -98
t28.5 -108t54.5 -101.5t90 -73t131 -29.5t131.5 29.5t90.5 73.5t54 101.5t28.5 107.5t7.5 98t-7.5 98t-28.5 107.5t-54 101t-90.5 73t-131.5 29.5t-131 -29.5t-90 -73t-54.5 -101.5t-28.5 -107.5t-7 -97.5zM698 1503l-268 -289h-137l182 289h223zM1067 1503l-268 -289h-137
l182 289h223z" />
    <glyph glyph-name="Racute" unicode="&#x154;" horiz-adv-x="1478" 
d="M379 631v-631h-199v1470h680q77 0 143.5 -11t130.5 -39t109 -71.5t72.5 -113.5t27.5 -160q0 -62 -13 -114.5t-31 -87t-48 -65.5t-54 -48t-58 -37q33 -14 51 -23t44.5 -30.5t40.5 -48t26 -71.5t14 -104l12 -266q2 -63 15.5 -92t58.5 -55v-33h-244q-19 58 -27 175.5
t-8 193.5q0 42 -4 74t-20 69.5t-43 61.5t-76.5 40.5t-118.5 16.5h-481zM379 1300v-499h461q48 0 87 5.5t80 22t69 43.5t45.5 73.5t17.5 109.5q0 65 -19 112.5t-45.5 72t-65.5 39t-69 18t-66 3.5h-495zM1053 1903l-267 -289h-137l182 289h222z" />
    <glyph glyph-name="racute" unicode="&#x155;" horiz-adv-x="681" 
d="M338 623v-623h-180v1071h170v-178h4q120 209 301 209q26 0 47 -6v-187h-68q-123 0 -198.5 -83t-75.5 -203zM653 1503l-266 -289h-137l182 289h221z" />
    <glyph glyph-name="Rcommaaccent" unicode="&#x156;" horiz-adv-x="1478" 
d="M379 631v-631h-199v1470h680q77 0 143.5 -11t130.5 -39t109 -71.5t72.5 -113.5t27.5 -160q0 -62 -13 -114.5t-31 -87t-48 -65.5t-54 -48t-58 -37q33 -14 51 -23t44.5 -30.5t40.5 -48t26 -71.5t14 -104l12 -266q2 -63 15.5 -92t58.5 -55v-33h-244q-19 58 -27 175.5
t-8 193.5q0 42 -4 74t-20 69.5t-43 61.5t-76.5 40.5t-118.5 16.5h-481zM379 1300v-499h461q48 0 87 5.5t80 22t69 43.5t45.5 73.5t17.5 109.5q0 65 -19 112.5t-45.5 72t-65.5 39t-69 18t-66 3.5h-495zM662 -248v166h192v-145q0 -203 -192 -234v70q53 4 75.5 45t22.5 98h-98z
" />
    <glyph glyph-name="rcommaaccent" unicode="&#x157;" horiz-adv-x="681" 
d="M338 623v-623h-180v1071h170v-178h4q120 209 301 209q26 0 47 -6v-187h-68q-123 0 -198.5 -83t-75.5 -203zM160 -248v166h192v-145q0 -203 -192 -234v70q53 4 75.5 45t22.5 98h-98z" />
    <glyph glyph-name="Rcaron" unicode="&#x158;" horiz-adv-x="1478" 
d="M379 631v-631h-199v1470h680q77 0 143.5 -11t130.5 -39t109 -71.5t72.5 -113.5t27.5 -160q0 -62 -13 -114.5t-31 -87t-48 -65.5t-54 -48t-58 -37q33 -14 51 -23t44.5 -30.5t40.5 -48t26 -71.5t14 -104l12 -266q2 -63 15.5 -92t58.5 -55v-33h-244q-19 58 -27 175.5
t-8 193.5q0 42 -4 74t-20 69.5t-43 61.5t-76.5 40.5t-118.5 16.5h-481zM379 1300v-499h461q48 0 87 5.5t80 22t69 43.5t45.5 73.5t17.5 109.5q0 65 -19 112.5t-45.5 72t-65.5 39t-69 18t-66 3.5h-495zM604 1903l135 -191l135 191h164l-202 -289h-191l-203 289h162z" />
    <glyph glyph-name="rcaron" unicode="&#x159;" horiz-adv-x="681" 
d="M338 623v-623h-180v1071h170v-178h4q120 209 301 209q26 0 47 -6v-187h-68q-123 0 -198.5 -83t-75.5 -203zM287 1503l135 -190l135 190h164l-203 -289h-190l-203 289h162z" />
    <glyph glyph-name="Sacute" unicode="&#x15a;" horiz-adv-x="1366" 
d="M1229 1040h-187q-4 81 -37 141.5t-87 93.5t-114 48.5t-126 15.5q-43 0 -83.5 -5t-88.5 -22t-82.5 -43.5t-58 -75t-23.5 -112.5q0 -85 48 -126.5t126 -59.5l420 -96q154 -36 244 -132t90 -261q0 -84 -25 -153.5t-69 -117t-99.5 -82.5t-121.5 -54.5t-130.5 -28.5t-130.5 -9
q-96 0 -172.5 12.5t-129 36.5t-81.5 44t-61 48q-87 79 -118.5 168t-31.5 205h187q0 -77 24.5 -137.5t64 -98.5t93.5 -63t108.5 -35t114.5 -10q49 0 95.5 5t101 21.5t94.5 42.5t67 72.5t27 106.5q0 78 -29 124.5t-93.5 76t-190.5 59.5l-301 70q-313 75 -313 346q0 70 18 135
t57.5 123.5t97.5 101.5t143 68.5t189 25.5q106 0 193 -18t144.5 -46t101.5 -70t68 -82t39.5 -90t20.5 -85.5t7 -77.5zM995 1903l-266 -289h-137l182 289h221z" />
    <glyph glyph-name="sacute" unicode="&#x15b;" horiz-adv-x="1024" 
d="M915 766h-174q-5 180 -254 180q-27 0 -57.5 -5.5t-68.5 -19.5t-62.5 -47t-24.5 -79q0 -62 40.5 -88.5t154.5 -55.5l180 -45q165 -41 233 -106t68 -176q0 -163 -119.5 -259t-304.5 -96q-88 0 -158.5 14.5t-117 36.5t-81.5 56.5t-53.5 65.5t-30 72t-14.5 68t-5 62h174
q2 -26 6 -46t13.5 -47.5t29.5 -48t49.5 -39t77 -28.5t108.5 -10q105 0 175.5 43t70.5 127q0 62 -45.5 92.5t-167.5 61.5l-209 51q-248 61 -248 260q0 86 33.5 152.5t91 107.5t129 61.5t152.5 20.5q79 0 143 -16t105.5 -41t73 -59t47.5 -65t25.5 -65.5t12 -54t2.5 -35.5z
M825 1503l-266 -289h-137l182 289h221z" />
    <glyph glyph-name="Scaron" unicode="&#x160;" horiz-adv-x="1366" 
d="M1229 1040h-187q-4 81 -37 141.5t-87 93.5t-114 48.5t-126 15.5q-43 0 -83.5 -5t-88.5 -22t-82.5 -43.5t-58 -75t-23.5 -112.5q0 -85 48 -126.5t126 -59.5l420 -96q154 -36 244 -132t90 -261q0 -84 -25 -153.5t-69 -117t-99.5 -82.5t-121.5 -54.5t-130.5 -28.5t-130.5 -9
q-96 0 -172.5 12.5t-129 36.5t-81.5 44t-61 48q-87 79 -118.5 168t-31.5 205h187q0 -77 24.5 -137.5t64 -98.5t93.5 -63t108.5 -35t114.5 -10q49 0 95.5 5t101 21.5t94.5 42.5t67 72.5t27 106.5q0 78 -29 124.5t-93.5 76t-190.5 59.5l-301 70q-313 75 -313 346q0 70 18 135
t57.5 123.5t97.5 101.5t143 68.5t189 25.5q106 0 193 -18t144.5 -46t101.5 -70t68 -82t39.5 -90t20.5 -85.5t7 -77.5zM547 1903l135 -191l135 191h164l-203 -289h-190l-203 289h162z" />
    <glyph glyph-name="scaron" unicode="&#x161;" horiz-adv-x="1024" 
d="M915 766h-174q-5 180 -254 180q-27 0 -57.5 -5.5t-68.5 -19.5t-62.5 -47t-24.5 -79q0 -62 40.5 -88.5t154.5 -55.5l180 -45q165 -41 233 -106t68 -176q0 -163 -119.5 -259t-304.5 -96q-88 0 -158.5 14.5t-117 36.5t-81.5 56.5t-53.5 65.5t-30 72t-14.5 68t-5 62h174
q2 -26 6 -46t13.5 -47.5t29.5 -48t49.5 -39t77 -28.5t108.5 -10q105 0 175.5 43t70.5 127q0 62 -45.5 92.5t-167.5 61.5l-209 51q-248 61 -248 260q0 86 33.5 152.5t91 107.5t129 61.5t152.5 20.5q79 0 143 -16t105.5 -41t73 -59t47.5 -65t25.5 -65.5t12 -54t2.5 -35.5z
M377 1503l135 -190l135 190h164l-203 -289h-190l-203 289h162z" />
    <glyph glyph-name="Tcommaaccent" unicode="&#x162;" horiz-adv-x="1251" 
d="M29 1294v176h1194v-176h-498v-1294h-199v1294h-497zM549 -248v166h192v-145q0 -203 -192 -234v70q53 4 75.5 45t22.5 98h-98z" />
    <glyph glyph-name="Tcommaaccent" unicode="&#x21a;" horiz-adv-x="1251" 
d="M29 1294v176h1194v-176h-498v-1294h-199v1294h-497zM549 -248v166h192v-145q0 -203 -192 -234v70q53 4 75.5 45t22.5 98h-98z" />
    <glyph glyph-name="tcommaaccent" unicode="&#x163;" horiz-adv-x="569" 
d="M526 922h-172v-697q0 -24 8.5 -41t19 -25t28 -12.5t27.5 -5t26 -0.5h63v-141q-27 -2 -58.5 -6t-50 -6t-26.5 -2q-65 0 -109 17t-67 50t-32 71.5t-9 90.5v707h-145v149h145v299h180v-299h172v-149zM227 -248v166h193v-145q0 -203 -193 -234v70q53 4 76 45.5t23 97.5h-99z
" />
    <glyph glyph-name="tcommaaccent" unicode="&#x21b;" horiz-adv-x="569" 
d="M526 922h-172v-697q0 -24 8.5 -41t19 -25t28 -12.5t27.5 -5t26 -0.5h63v-141q-27 -2 -58.5 -6t-50 -6t-26.5 -2q-65 0 -109 17t-67 50t-32 71.5t-9 90.5v707h-145v149h145v299h180v-299h172v-149zM227 -248v166h193v-145q0 -203 -193 -234v70q53 4 76 45.5t23 97.5h-99z
" />
    <glyph glyph-name="Tcaron" unicode="&#x164;" horiz-adv-x="1251" 
d="M29 1294v176h1194v-176h-498v-1294h-199v1294h-497zM489 1903l136 -191l135 191h164l-203 -289h-191l-202 289h161z" />
    <glyph glyph-name="tcaron" unicode="&#x165;" horiz-adv-x="649" 
d="M526 922h-172v-697q0 -24 8.5 -41t19 -25t28 -12.5t27.5 -5t26 -0.5h63v-141q-27 -2 -58.5 -6t-50 -6t-26.5 -2q-65 0 -109 17t-67 50t-32 71.5t-9 90.5v707h-145v149h145v299h180v-299h172v-149zM481 1460v195h193v-180q0 -71 -17.5 -125.5t-39 -83t-53 -47.5t-48 -23.5
t-35.5 -7.5v86q99 8 99 186h-99z" />
    <glyph glyph-name="Umacron" unicode="&#x16a;" horiz-adv-x="1478" 
d="M1120 1470h199v-954q0 -115 -36.5 -214t-107.5 -176t-186 -121t-262 -44q-143 0 -254 43.5t-177.5 118.5t-100 167.5t-33.5 198.5v981h198v-925q0 -92 22 -164.5t57.5 -117.5t85.5 -74t100.5 -40.5t107.5 -11.5q74 0 138 19t122.5 62.5t92.5 126t34 196.5v929zM1061 1800
v-117h-641v117h641z" />
    <glyph glyph-name="umacron" unicode="&#x16b;" 
d="M1001 0h-170v156l-4 4q-60 -98 -138 -144.5t-202 -46.5q-50 0 -97 9.5t-93.5 34t-80.5 61t-55.5 95t-21.5 132.5v770h180v-711q0 -235 207 -235q81 0 141 33t92 87.5t47 113.5t15 122v590h180v-1071zM891 1401v-117h-641v117h641z" />
    <glyph glyph-name="Uring" unicode="&#x16e;" horiz-adv-x="1478" 
d="M1120 1470h199v-954q0 -115 -36.5 -214t-107.5 -176t-186 -121t-262 -44q-143 0 -254 43.5t-177.5 118.5t-100 167.5t-33.5 198.5v981h198v-925q0 -92 22 -164.5t57.5 -117.5t85.5 -74t100.5 -40.5t107.5 -11.5q74 0 138 19t122.5 62.5t92.5 126t34 196.5v929zM741 1907
q82 0 135.5 -53.5t53.5 -135.5t-53.5 -135t-135.5 -53t-135 53t-53 135t53 135.5t135 53.5zM635 1718q0 -44 31 -75t75 -31t75.5 31t31.5 75t-31.5 75.5t-75.5 31.5t-75 -31.5t-31 -75.5z" />
    <glyph glyph-name="uring" unicode="&#x16f;" 
d="M1001 0h-170v156l-4 4q-60 -98 -138 -144.5t-202 -46.5q-50 0 -97 9.5t-93.5 34t-80.5 61t-55.5 95t-21.5 132.5v770h180v-711q0 -235 207 -235q81 0 141 33t92 87.5t47 113.5t15 122v590h180v-1071zM571 1548q82 0 135.5 -53t53.5 -135t-53.5 -135.5t-135.5 -53.5
t-135 53.5t-53 135.5t53 135t135 53zM465 1360q0 -44 31 -75.5t75 -31.5t75.5 31.5t31.5 75.5t-31.5 75t-75.5 31t-75 -31t-31 -75z" />
    <glyph glyph-name="Uhungarumlaut" unicode="&#x170;" horiz-adv-x="1478" 
d="M1120 1470h199v-954q0 -115 -36.5 -214t-107.5 -176t-186 -121t-262 -44q-143 0 -254 43.5t-177.5 118.5t-100 167.5t-33.5 198.5v981h198v-925q0 -92 22 -164.5t57.5 -117.5t85.5 -74t100.5 -40.5t107.5 -11.5q74 0 138 19t122.5 62.5t92.5 126t34 196.5v929zM868 1903
l-268 -289h-137l182 289h223zM1237 1903l-268 -289h-138l183 289h223z" />
    <glyph glyph-name="uhungarumlaut" unicode="&#x171;" 
d="M1001 0h-170v156l-4 4q-60 -98 -138 -144.5t-202 -46.5q-50 0 -97 9.5t-93.5 34t-80.5 61t-55.5 95t-21.5 132.5v770h180v-711q0 -235 207 -235q81 0 141 33t92 87.5t47 113.5t15 122v590h180v-1071zM698 1503l-268 -289h-137l182 289h223zM1067 1503l-268 -289h-137
l182 289h223z" />
    <glyph glyph-name="Uogonek" unicode="&#x172;" horiz-adv-x="1478" 
d="M1044 -334l35 -82q-109 -45 -196 -45q-111 0 -176.5 53.5t-65.5 135.5q0 57 30 123.5t107 111.5q-14 -2 -51 -2q-143 0 -254 43.5t-177.5 118.5t-100 167.5t-33.5 198.5v981h198v-925q0 -92 22 -164.5t57.5 -117.5t85.5 -74t100.5 -40.5t107.5 -11.5q74 0 138 19
t122.5 62.5t92.5 126t34 196.5v929h199v-954q0 -169 -83.5 -308t-229.5 -196q-87 -33 -148 -114.5t-61 -159.5q0 -32 11.5 -54.5t31.5 -32t36.5 -13t34.5 -3.5q54 0 133 31z" />
    <glyph glyph-name="uogonek" unicode="&#x173;" 
d="M1028 -334l35 -82q-109 -45 -197 -45q-111 0 -176 53.5t-65 135.5q0 27 8 59t29 74t67.5 80t112.5 59h-11v156l-4 4q-60 -98 -138 -144.5t-202 -46.5q-50 0 -97 9.5t-93.5 34t-80.5 61t-55.5 95t-21.5 132.5v770h180v-711q0 -235 207 -235q81 0 141 33t92 87.5t47 113.5
t15 122v590h180v-1071h-16q-122 -73 -163.5 -128t-41.5 -134q0 -32 12 -54.5t31.5 -32t36.5 -13t35 -3.5q54 0 133 31z" />
    <glyph glyph-name="Zacute" unicode="&#x179;" horiz-adv-x="1251" 
d="M1204 176v-176h-1157v166l901 1128h-833v176h1089v-172l-905 -1122h905zM938 1903l-266 -289h-137l182 289h221z" />
    <glyph glyph-name="zacute" unicode="&#x17a;" horiz-adv-x="1024" 
d="M942 924l-639 -774h658v-150h-898v141l646 781h-596v149h829v-147zM825 1503l-266 -289h-137l182 289h221z" />
    <glyph glyph-name="Zdotaccent" unicode="&#x17b;" horiz-adv-x="1251" 
d="M1204 176v-176h-1157v166l901 1128h-833v176h1089v-172l-905 -1122h905zM719 1845v-209h-187v209h187z" />
    <glyph glyph-name="zdotaccent" unicode="&#x17c;" horiz-adv-x="1024" 
d="M942 924l-639 -774h658v-150h-898v141l646 781h-596v149h829v-147zM606 1446v-209h-186v209h186z" />
    <glyph glyph-name="Zcaron" unicode="&#x17d;" horiz-adv-x="1251" 
d="M1204 176v-176h-1157v166l901 1128h-833v176h1089v-172l-905 -1122h905zM489 1903l136 -191l135 191h164l-203 -289h-191l-202 289h161z" />
    <glyph glyph-name="zcaron" unicode="&#x17e;" horiz-adv-x="1024" 
d="M942 924l-639 -774h658v-150h-898v141l646 781h-596v149h829v-147zM377 1503l135 -190l135 190h164l-203 -289h-190l-203 289h162z" />
    <glyph glyph-name="Scommaaccent" unicode="&#x218;" horiz-adv-x="1366" 
d="M1229 1040h-187q-4 81 -37 141.5t-87 93.5t-114 48.5t-126 15.5q-43 0 -83.5 -5t-88.5 -22t-82.5 -43.5t-58 -75t-23.5 -112.5q0 -85 48 -126.5t126 -59.5l420 -96q154 -36 244 -132t90 -261q0 -84 -25 -153.5t-69 -117t-99.5 -82.5t-121.5 -54.5t-130.5 -28.5t-130.5 -9
q-96 0 -172.5 12.5t-129 36.5t-81.5 44t-61 48q-87 79 -118.5 168t-31.5 205h187q0 -77 24.5 -137.5t64 -98.5t93.5 -63t108.5 -35t114.5 -10q49 0 95.5 5t101 21.5t94.5 42.5t67 72.5t27 106.5q0 78 -29 124.5t-93.5 76t-190.5 59.5l-301 70q-313 75 -313 346q0 70 18 135
t57.5 123.5t97.5 101.5t143 68.5t189 25.5q106 0 193 -18t144.5 -46t101.5 -70t68 -82t39.5 -90t20.5 -85.5t7 -77.5zM606 -248v166h193v-145q0 -203 -193 -234v70q53 4 76 45.5t23 97.5h-99z" />
    <glyph glyph-name="scommaaccent" unicode="&#x219;" horiz-adv-x="1024" 
d="M915 766h-174q-5 180 -254 180q-27 0 -57.5 -5.5t-68.5 -19.5t-62.5 -47t-24.5 -79q0 -62 40.5 -88.5t154.5 -55.5l180 -45q165 -41 233 -106t68 -176q0 -163 -119.5 -259t-304.5 -96q-88 0 -158.5 14.5t-117 36.5t-81.5 56.5t-53.5 65.5t-30 72t-14.5 68t-5 62h174
q2 -26 6 -46t13.5 -47.5t29.5 -48t49.5 -39t77 -28.5t108.5 -10q105 0 175.5 43t70.5 127q0 62 -45.5 92.5t-167.5 61.5l-209 51q-248 61 -248 260q0 86 33.5 152.5t91 107.5t129 61.5t152.5 20.5q79 0 143 -16t105.5 -41t73 -59t47.5 -65t25.5 -65.5t12 -54t2.5 -35.5z
M434 -248v166h193v-145q0 -203 -193 -234v70q53 4 75.5 45t22.5 98h-98z" />
    <glyph glyph-name="caron" unicode="&#x2c7;" horiz-adv-x="681" 
d="M205 1503l135 -190l135 190h164l-203 -289h-190l-203 289h162z" />
    <glyph glyph-name="breve" unicode="&#x2d8;" horiz-adv-x="681" 
d="M559 1497h98q-32 -278 -325 -278q-56 0 -101.5 12t-75.5 30t-53.5 45.5t-36 50.5t-21.5 54t-12 47.5t-5 38.5h100q22 -70 49 -98q57 -64 172 -64q47 0 83.5 11.5t56.5 26.5t36 41t21.5 41.5t13.5 41.5z" />
    <glyph glyph-name="dotaccent" unicode="&#x2d9;" horiz-adv-x="681" 
d="M434 1446v-209h-186v209h186z" />
    <glyph glyph-name="ogonek" unicode="&#x2db;" horiz-adv-x="681" 
d="M553 -334l35 -82q-109 -45 -197 -45q-111 0 -176 53.5t-65 135.5q0 31 8.5 64.5t30 75.5t69 77.5t115.5 54.5h137v-8q-122 -67 -163.5 -121t-41.5 -133q0 -32 12 -54.5t31.5 -32t36.5 -13t35 -3.5q54 0 133 31z" />
    <glyph glyph-name="hungarumlaut" unicode="&#x2dd;" horiz-adv-x="681" 
d="M469 1503l-268 -289h-138l183 289h223zM838 1503l-269 -289h-137l182 289h224z" />
    <glyph glyph-name="Delta" unicode="&#x394;" horiz-adv-x="1253" 
d="M668 1409l577 -1409h-1233zM594 1059l-447 -959h844z" />
    <glyph glyph-name="Delta" unicode="&#x2206;" horiz-adv-x="1253" 
d="M668 1409l577 -1409h-1233zM594 1059l-447 -959h844z" />
    <glyph glyph-name="endash" unicode="&#x2013;" 
d="M1139 641v-149h-1139v149h1139z" />
    <glyph glyph-name="emdash" unicode="&#x2014;" horiz-adv-x="2048" 
d="M2048 641v-149h-2048v149h2048z" />
    <glyph glyph-name="quoteleft" unicode="&#x2018;" horiz-adv-x="454" 
d="M346 1180v-217h-213v200q0 130 48 212t165 110v-96q-37 -6 -61 -28t-33 -58t-11.5 -61t-2.5 -62h108z" />
    <glyph glyph-name="quoteright" unicode="&#x2019;" horiz-adv-x="454" 
d="M109 1253v217h213v-200q0 -130 -48 -212t-165 -110v96q37 6 61 28t33 58t11.5 61t2.5 62h-108z" />
    <glyph glyph-name="quotesinglbase" unicode="&#x201a;" horiz-adv-x="454" 
d="M109 0v217h213v-201q0 -129 -48 -211t-165 -110v96q37 6 61 28t33 58t11.5 61t2.5 62h-108z" />
    <glyph glyph-name="quotedblleft" unicode="&#x201c;" horiz-adv-x="681" 
d="M629 1180v-217h-213v200q0 130 48 212t165 110v-96q-37 -6 -61 -28t-33.5 -58t-12 -61.5t-2.5 -61.5h109zM291 1180v-217h-213v200q0 130 48 212t165 110v-96q-37 -6 -61 -28t-33.5 -58t-12 -61.5t-2.5 -61.5h109z" />
    <glyph glyph-name="quotedblright" unicode="&#x201d;" horiz-adv-x="681" 
d="M53 1253v217h213v-200q0 -130 -48 -212t-165 -110v96q37 6 61 28t33.5 58t12 61.5t2.5 61.5h-109zM391 1253v217h213v-200q0 -130 -48 -212t-165 -110v96q37 6 61 28t33.5 58t12 61.5t2.5 61.5h-109z" />
    <glyph glyph-name="quotedblbase" unicode="&#x201e;" horiz-adv-x="681" 
d="M53 0v217h213v-201q0 -129 -48 -211t-165 -110v96q37 6 61 28t33.5 58t12 61.5t2.5 61.5h-109zM391 0v217h213v-201q0 -129 -48 -211t-165 -110v96q37 6 61 28t33.5 58t12 61.5t2.5 61.5h-109z" />
    <glyph glyph-name="dagger" unicode="&#x2020;" 
d="M668 883v-1209h-193v1209h-387v155h387v432h193v-432h385v-155h-385z" />
    <glyph glyph-name="daggerdbl" unicode="&#x2021;" 
d="M668 899v-655h385v-156h-385v-414h-193v414h-387v156h387v655h-387v156h387v415h193v-415h385v-156h-385z" />
    <glyph glyph-name="bullet" unicode="&#x2022;" horiz-adv-x="716" 
d="M682 735q0 -133 -95 -227t-229 -94t-227.5 93t-93.5 228q0 134 93.5 229t227.5 95t229 -95.5t95 -228.5z" />
    <glyph glyph-name="ellipsis" unicode="&#x2026;" horiz-adv-x="2048" 
d="M449 217v-217h-213v217h213zM1130 217v-217h-212v217h212zM1812 217v-217h-213v217h213z" />
    <glyph glyph-name="perthousand" unicode="&#x2030;" horiz-adv-x="2048" 
d="M14 1104q0 133 94 226t226 93t225.5 -93.5t93.5 -225.5t-93 -226t-226 -94t-226.5 93t-93.5 227zM143 1104q0 -79 55 -135t136 -56q78 0 134 56.5t56 134.5q0 79 -56 134.5t-134 55.5q-81 0 -136 -56t-55 -134zM653 305q0 133 94 226.5t226 93.5t225.5 -94t93.5 -226
t-93 -225.5t-226 -93.5t-226.5 92.5t-93.5 226.5zM782 305q0 -79 55 -134.5t136 -55.5q78 0 134 56t56 134q0 79 -56 135t-134 56q-81 0 -136 -56.5t-55 -134.5zM1397 305q0 133 93.5 226.5t225.5 93.5t226 -94t94 -226t-93.5 -225.5t-226.5 -93.5t-226 92.5t-93 226.5z
M1526 305q0 -79 54.5 -134.5t135.5 -55.5q78 0 134.5 56t56.5 134q0 79 -56.5 135t-134.5 56q-80 0 -135 -56.5t-55 -134.5zM1114 1440l-813 -1479h-113l813 1479h113z" />
    <glyph glyph-name="guilsinglleft" unicode="&#x2039;" horiz-adv-x="681" 
d="M502 401v-180l-322 252v189l322 251v-180l-215 -166z" />
    <glyph glyph-name="guilsinglright" unicode="&#x203a;" horiz-adv-x="681" 
d="M180 221v180l215 166l-215 166v180l322 -251v-189z" />
    <glyph glyph-name="Euro" unicode="&#x20ac;" 
d="M1051 1350v-187q-47 47 -125.5 77t-180.5 30q-158 0 -247.5 -94t-112.5 -254h584l-51 -146h-551q-2 -18 -2 -67q0 -58 2 -76h499l-49 -146h-432q25 -172 116.5 -264t243.5 -92q188 0 306 107v-189q-41 -34 -127.5 -60t-200.5 -26q-216 0 -349 130t-171 394h-154l49 146
h90q-2 18 -2 74q0 51 2 69h-139l49 146h103q36 240 164 379t358 139q107 0 195 -27t133 -63z" />
    <glyph glyph-name="trademark" unicode="&#x2122;" horiz-adv-x="2048" 
d="M1141 1470l241 -620l238 620h229v-843h-149v686h-4l-264 -686h-103l-264 686h-4v-686h-150v843h230zM764 1470v-122h-260v-721h-150v721h-260v122h670z" />
    <glyph glyph-name="partialdiff" unicode="&#x2202;" horiz-adv-x="974" 
d="M201 1300l-78 101q136 61 278 61q273 0 449 -284q40 -64 69 -201t29 -225q0 -118 -20 -254t-66 -234q-102 -225 -256 -299q-94 -43 -180 -43q-128 0 -227 64q-73 46 -122.5 128t-49.5 199q0 168 108 316q114 151 307 151q86 0 147 -25t159 -96q14 138 14 207
q0 71 -22.5 166.5t-49.5 151.5q-30 65 -106 125.5t-164 60.5q-103 0 -219 -70zM213 262q0 -65 22.5 -139t73.5 -98q76 -37 156 -7q39 14 78.5 62t70.5 113q81 170 117 370q-5 5 -30 28t-34 30.5t-32 24t-38.5 23t-39 12t-47.5 5.5q-136 -3 -203 -102q-94 -136 -94 -322z" />
    <glyph glyph-name="summation" unicode="&#x2211;" horiz-adv-x="1228" 
d="M31 0l600 678l-596 768h1032l10 -272h-35q-24 77 -41 98q-31 41 -122 48q-32 3 -76 3h-424l459 -590l-506 -569h596q98 0 142.5 41t90.5 160h39q-34 -136 -45.5 -197t-28.5 -188q-9 2 -35 7t-40 7q-41 6 -64 6h-956z" />
    <glyph glyph-name="radical" unicode="&#x221a;" horiz-adv-x="927" 
d="M664 -164l-465 959l-166 -80l-41 82l276 135l307 -633l207 1262l156 -27z" />
    <glyph glyph-name="notequal" unicode="&#x2260;" horiz-adv-x="1124" 
d="M1100 211h-625l-160 -283l-159 90l108 193h-239v180h344l143 254h-487v184h591l170 299l158 -90l-117 -209h273v-184h-379l-143 -254h522v-180z" />
    <glyph glyph-name="lessequal" unicode="&#x2264;" horiz-adv-x="1124" 
d="M53 0v186h1018v-186h-1018zM1071 1380v-182l-797 -350l797 -348v-183l-1018 445v174z" />
    <glyph glyph-name="greaterequal" unicode="&#x2265;" horiz-adv-x="1124" 
d="M53 0v186h1018v-186h-1018zM53 1380l1018 -444v-174l-1018 -445v183l795 348l-795 350v182z" />
    <glyph glyph-name="lozenge" unicode="&#x25ca;" horiz-adv-x="964" 
d="M416 0l-396 754l396 737h135l395 -737l-395 -754h-135zM211 754l272 -529l273 529l-273 514z" />
    </font>
</defs>
</svg>
