<?xml version="1.0" standalone="no"?>
<!DOCTYPE svg PUBLIC "-//W3C//DTD SVG 1.1//EN" "http://www.w3.org/Graphics/SVG/1.1/DTD/svg11.dtd" >
<svg xmlns="http://www.w3.org/2000/svg" xmlns:xlink="http://www.w3.org/1999/xlink" version="1.1">
<metadata>
Created by FontForge 20170731 at Tue Dec 12 13:38:27 2023
 By Aleksey,,,
Copyright (c) 1985, 1987, 1989, 1990, 1997 Adobe Systems Incorporated.  All Rights Reserved.Helvetica is a trademark of Linotype-Hell AG and/or its subsidiaries.
</metadata>
<defs>
<font id="HelveticaCE-Bold" horiz-adv-x="1138" >
  <font-face 
    font-family="Helvetica CE"
    font-weight="700"
    font-stretch="normal"
    units-per-em="2048"
    panose-1="4 0 8 0 0 0 0 0 0 0"
    ascent="1581"
    descent="-467"
    x-height="1090"
    cap-height="1470"
    bbox="-76 -467 2054 1970"
    underline-thickness="102"
    underline-position="-307"
    unicode-range="U+0020-25CA"
  />
<missing-glyph horiz-adv-x="569" 
 />
    <glyph glyph-name=".notdef" horiz-adv-x="569" 
 />
    <glyph glyph-name=".null" horiz-adv-x="0" 
 />
    <glyph glyph-name="nonmarkingreturn" horiz-adv-x="682" 
 />
    <glyph glyph-name="space" unicode=" " horiz-adv-x="569" 
 />
    <glyph glyph-name="space" unicode="&#xa0;" horiz-adv-x="569" 
 />
    <glyph glyph-name="exclam" unicode="!" horiz-adv-x="681" 
d="M492 289v-289h-299v289h299zM500 1096l-82 -688h-152l-82 688v374h316v-374z" />
    <glyph glyph-name="quotedbl" unicode="&#x22;" horiz-adv-x="970" 
d="M569 915v555h201v-555h-201zM201 915v555h200v-555h-200z" />
    <glyph glyph-name="numbersign" unicode="#" 
d="M1042 592l-24 -184h-199l-57 -408h-193l58 408h-199l-57 -408h-193l58 408h-199l24 184h199l35 246h-199l25 184h198l58 408h192l-57 -408h199l57 408h193l-58 -408h199l-25 -184h-198l-35 -246h198zM686 838h-199l-34 -246h198z" />
    <glyph glyph-name="dollar" unicode="$" 
d="M1049 1026h-265q-4 68 -19 112t-40 64.5t-49.5 27.5t-59.5 7v-383q258 -82 342 -162q113 -106 113 -286q0 -59 -14.5 -116.5t-49 -114.5t-85 -101t-129.5 -74t-177 -35v-201h-94v201q-247 20 -354 132t-107 343h269q5 -61 13 -98t28 -72.5t56.5 -56t94.5 -31.5v430
q-50 13 -87.5 25t-85 31.5t-81.5 40.5t-69.5 53t-57 69t-35.5 87.5t-14 109.5q0 85 27 160t78.5 134.5t135 95t189.5 36.5v133h94v-133q40 -4 71.5 -9.5t76.5 -18.5t79 -32t72 -51.5t64 -74.5t45 -104t25 -138zM522 883v354q-84 -4 -128 -53t-44 -107q0 -155 172 -194z
M616 578v-396q29 2 57.5 11.5t58 30.5t47.5 62t18 97q0 144 -181 195z" />
    <glyph glyph-name="percent" unicode="%" horiz-adv-x="1820" 
d="M268 1081q0 -67 48 -114t114 -47t114 47t48 114t-48 114.5t-114 47.5t-114 -47.5t-48 -114.5zM57 1081q0 155 109.5 264t263.5 109q153 0 263 -110t110 -263q0 -154 -110 -263t-263 -109q-155 0 -264 108t-109 264zM1389 1454l-816 -1493h-151l815 1493h152zM1018 348
q0 155 109.5 264t263.5 109q153 0 262.5 -109.5t109.5 -263.5q0 -155 -109.5 -264t-262.5 -109q-154 0 -263.5 108.5t-109.5 264.5zM1229 348q0 -67 48 -114.5t114 -47.5t113.5 47.5t47.5 114.5t-47.5 114.5t-113.5 47.5t-114 -47.5t-48 -114.5z" />
    <glyph glyph-name="ampersand" unicode="&#x26;" horiz-adv-x="1478" 
d="M795 1133q0 59 -34 89.5t-89 30.5q-50 0 -84.5 -31t-34.5 -87q0 -70 106 -185q136 85 136 183zM1169 322l267 -322h-346l-101 125q-77 -77 -173 -120.5t-247 -43.5q-102 0 -189.5 34.5t-145.5 92.5t-90.5 133.5t-32.5 157.5q0 59 10.5 107t38.5 103.5t86.5 110
t146.5 107.5l31 18q-133 153 -133 308q0 150 109.5 243.5t281.5 93.5q50 0 99.5 -12.5t97 -39.5t83.5 -66t58 -96.5t22 -125.5q0 -59 -21 -113t-46.5 -89t-66 -70t-60.5 -48t-49 -30l209 -258q62 96 75 242h254q-13 -144 -52 -242.5t-116 -199.5zM842 305l-271 338
q-55 -40 -80 -60.5t-51 -50.5t-34.5 -61t-8.5 -74q0 -25 10.5 -55t33 -63t68 -54.5t105.5 -21.5q117 0 228 102z" />
    <glyph glyph-name="quotesingle" unicode="'" horiz-adv-x="487" 
d="M143 915v555h201v-555h-201z" />
    <glyph glyph-name="parenleft" unicode="(" horiz-adv-x="681" 
d="M643 -426h-211q-76 102 -134.5 200.5t-112.5 220t-83.5 259.5t-29.5 281q0 144 28.5 281.5t81.5 259t112.5 222.5t137.5 205h211q-65 -110 -110.5 -207t-85.5 -216t-60 -255t-20 -290q0 -153 21 -289.5t62 -255.5t85 -212.5t108 -203.5z" />
    <glyph glyph-name="parenright" unicode=")" horiz-adv-x="681" 
d="M39 1503h211q76 -103 134.5 -200.5t112.5 -219t83.5 -259.5t29.5 -281q0 -144 -28.5 -281.5t-81.5 -259.5t-113 -223t-137 -205h-211q65 110 111 207t85.5 216.5t59.5 255.5t20 290q0 153 -21 289t-62 255.5t-85 212.5t-108 203z" />
    <glyph glyph-name="asterisk" unicode="*" horiz-adv-x="796" 
d="M692 1296l49 -149l-215 -66l142 -198l-129 -90l-140 186l-141 -186l-129 90l139 198l-213 66l47 149l209 -69v243h174v-243z" />
    <glyph glyph-name="plus" unicode="+" horiz-adv-x="1196" 
d="M483 633v403h230v-403h401v-230h-401v-403h-230v403h-401v230h401z" />
    <glyph glyph-name="comma" unicode="," horiz-adv-x="569" 
d="M438 299v-258q0 -92 -22.5 -160t-65.5 -112t-95 -70.5t-122 -42.5h-2v108q37 13 60 25t50.5 37.5t42.5 69t19 104.5h-172v299h307z" />
    <glyph glyph-name="hyphen" unicode="-" horiz-adv-x="681" 
d="M627 707v-267h-572v267h572z" />
    <glyph glyph-name="hyphen" unicode="&#xad;" horiz-adv-x="681" 
d="M627 707v-267h-572v267h572z" />
    <glyph glyph-name="period" unicode="." horiz-adv-x="569" 
d="M438 299v-299h-307v299h307z" />
    <glyph glyph-name="slash" unicode="/" horiz-adv-x="569" 
d="M637 1509l-465 -1548h-240l465 1548h240z" />
    <glyph glyph-name="zero" unicode="0" 
d="M66 709q0 382 123 563.5t380 181.5t380.5 -181.5t123.5 -563.5t-123.5 -565t-380.5 -183t-380 183t-123 565zM360 709q0 -288 44.5 -403.5t164.5 -115.5t164.5 115.5t44.5 403.5q0 287 -44 401.5t-165 114.5t-165 -114.5t-44 -401.5z" />
    <glyph glyph-name="one" unicode="1" 
d="M141 1001v201h41q98 0 170.5 23.5t110.5 62.5t56 80t20 86h235v-1454h-287v1001h-346z" />
    <glyph glyph-name="two" unicode="2" 
d="M348 940h-278q0 97 20 177t51 132t75.5 91.5t87 60.5t91.5 33.5t82.5 16t67.5 3.5q141 0 253 -52.5t179 -158t67 -248.5q0 -72 -19 -136.5t-46 -110t-71.5 -91t-80 -73t-86.5 -62.5q-204 -142 -248 -180q-58 -49 -77 -88h631v-254h-994q3 47 5.5 74t11 74t21.5 79.5
t38 79.5t59 87t85.5 88t117.5 96q194 141 251 193q92 86 110 173q6 29 6 62q0 81 -52 143.5t-149 62.5q-42 0 -75 -10t-54 -24.5t-36.5 -39.5t-23.5 -46t-12.5 -52.5t-5.5 -50.5t-2 -49z" />
    <glyph glyph-name="three" unicode="3" 
d="M436 637v205h45q34 0 59.5 2t63 13t61.5 30.5t42 58t18 92.5q0 19 -3.5 40t-15.5 48.5t-30.5 48.5t-53 35.5t-79.5 14.5q-197 0 -197 -238h-266q0 103 29.5 187.5t87.5 147.5t151 97.5t213 34.5q62 0 122 -12t120.5 -42.5t106 -75t74 -116t28.5 -159.5
q0 -102 -51.5 -173.5t-122.5 -103.5v-4q20 -5 43 -16t56 -37.5t58 -62t43.5 -94t18.5 -128.5q0 -206 -138.5 -337.5t-357.5 -131.5q-37 0 -72 2.5t-88 14t-97.5 30.5t-92 56t-80.5 86.5t-54.5 125.5t-21.5 170h281l-2 -2q0 -29 3.5 -57t16.5 -65.5t34.5 -65t62.5 -47
t96 -19.5q92 0 153.5 62t61.5 178q0 36 -8 66t-24.5 50.5t-35 36.5t-46 25.5t-50.5 15.5t-55 8.5t-54.5 3.5t-52.5 1z" />
    <glyph glyph-name="four" unicode="4" 
d="M266 545h363q0 155 1.5 299.5t3 229.5t1.5 95h-4zM1077 545v-223h-162v-322h-286v322h-574v247l535 885h325v-909h162z" />
    <glyph glyph-name="five" unicode="5" 
d="M408 1188l-52 -316q35 24 61 38t79.5 28t119.5 14q77 0 152 -27.5t141 -81t107 -147.5t41 -213q0 -54 -10 -108.5t-32 -115t-62.5 -112.5t-96.5 -94.5t-140.5 -67t-187.5 -24.5q-87 0 -168 26.5t-148 77t-109.5 134.5t-47.5 190h287q9 -93 60 -146t143 -53
q100 0 158.5 76.5t58.5 196.5q0 108 -53.5 184t-159.5 76q-136 0 -193 -105l-256 13l101 799h798v-242h-591z" />
    <glyph glyph-name="six" unicode="6" 
d="M1036 1085h-284q-6 64 -48.5 102t-119.5 38q-219 0 -240 -402l4 -4q89 121 273 121q108 0 195.5 -39t140 -104t80.5 -143t28 -162q0 -237 -132 -384t-343 -147q-92 0 -167.5 22t-129.5 59.5t-95 93t-66.5 116.5t-41 137t-21.5 148t-6 155q0 71 3.5 130t16 140.5t34.5 146
t63 131.5t96 112t139.5 73.5t188.5 28.5q64 0 157 -23.5t140 -70.5q63 -61 89.5 -112.5t45.5 -162.5zM778 467q0 66 -19.5 115.5t-51.5 76t-67 39.5t-71 13q-92 0 -155.5 -61.5t-63.5 -188.5q0 -119 63 -195t165 -76q85 0 142.5 69t57.5 208z" />
    <glyph glyph-name="seven" unicode="7" 
d="M1081 1430v-222q-37 -41 -72 -82.5t-87.5 -113.5t-97 -146t-93.5 -175t-84.5 -204t-62 -230.5t-33.5 -256.5h-295q9 165 55 333t104.5 294.5t132.5 245.5t127 186.5t99 116.5h-723l6 254h1024z" />
    <glyph glyph-name="eight" unicode="8" 
d="M571 864q83 0 131 50t48 130q0 81 -48.5 131t-119.5 50q-94 0 -145.5 -49.5t-51.5 -131.5q0 -71 49.5 -125.5t136.5 -54.5zM1073 432q0 -59 -15 -120t-52 -125t-92.5 -113.5t-145 -81t-199.5 -31.5q-108 0 -195.5 27t-144 71t-94 102.5t-53.5 118.5t-16 123q0 28 1.5 47
t6.5 58t19.5 70.5t37.5 68t63 69t93 56.5q-176 87 -176 285q0 121 60 212t162 138t230 47q216 0 338.5 -110t122.5 -269q0 -205 -168 -293q111 -56 164 -135.5t53 -214.5zM778 420q0 41 -11 79t-35 72.5t-67 55t-100 20.5q-86 0 -145.5 -57t-59.5 -168q0 -105 57 -168.5
t154 -63.5q54 0 95.5 21.5t65 56.5t35 73.5t11.5 78.5z" />
    <glyph glyph-name="nine" unicode="9" 
d="M348 973q0 -79 17.5 -133.5t49.5 -82t67.5 -39t80.5 -11.5q39 0 75.5 14t67.5 42.5t49.5 76.5t18.5 110q0 127 -55.5 198t-163.5 71q-25 0 -50 -5t-54.5 -21.5t-51.5 -42.5t-36.5 -71.5t-14.5 -105.5zM90 336h285v-2q12 -73 56 -108.5t112 -35.5q37 0 70.5 12.5t64.5 43
t53.5 76t36 115.5t14.5 159l-4 4q-83 -123 -276 -123q-135 0 -237 63.5t-153 165.5t-51 226q0 130 37 231t104 164t157 95t198 32q81 0 150 -19.5t118 -50.5t88.5 -79t64.5 -94.5t43 -108.5t27 -109.5t14 -109.5t6 -96t1 -80q0 -163 -30 -293t-80 -213.5t-119 -138.5
t-143 -78t-156 -23q-187 0 -309.5 101.5t-141.5 273.5z" />
    <glyph glyph-name="colon" unicode=":" horiz-adv-x="681" 
d="M496 299v-299h-308v299h308zM496 1049v-299h-308v299h308z" />
    <glyph glyph-name="semicolon" unicode=";" horiz-adv-x="681" 
d="M496 299v-258q0 -92 -22.5 -160.5t-66 -112t-95.5 -70t-122 -42.5h-2v108q37 13 60 25t50.5 37.5t42.5 69t19 104.5h-172v299h308zM496 1049v-299h-308v299h308z" />
    <glyph glyph-name="less" unicode="&#x3c;" horiz-adv-x="1196" 
d="M1118 205v-221l-1040 442v184l1040 443v-222l-743 -313z" />
    <glyph glyph-name="equal" unicode="=" horiz-adv-x="1196" 
d="M1114 858v-229h-1032v229h1032zM1114 408v-230h-1032v230h1032z" />
    <glyph glyph-name="greater" unicode="&#x3e;" horiz-adv-x="1196" 
d="M78 205l743 313l-743 313v222l1040 -443v-184l-1040 -442v221z" />
    <glyph glyph-name="question" unicode="?" horiz-adv-x="1251" 
d="M766 426h-270q0 81 6 130.5t28 100.5t63 93t112 92q126 87 126 202q0 57 -18.5 98.5t-49 63.5t-63 31.5t-67.5 9.5q-53 0 -92.5 -16t-62 -38.5t-37.5 -57t-20 -61.5t-9 -62v-2h-289q0 103 30 186t78.5 136.5t113.5 90t132 51.5t137 15q33 0 68.5 -3t89 -13.5t101 -28.5
t98 -51.5t86.5 -77.5t59 -112t23 -150q0 -117 -59.5 -201t-188.5 -176q-49 -35 -73 -61t-38 -71.5t-14 -117.5zM786 289v-289h-299v289h299z" />
    <glyph glyph-name="at" unicode="@" horiz-adv-x="1996" 
d="M1190 770q0 75 -46 124.5t-118 49.5q-101 0 -170.5 -87.5t-69.5 -188.5q0 -81 43 -132t117 -51q104 0 174 89t70 196zM1251 1010l27 108h180l-119 -522q-17 -80 -12 -104q6 -25 29 -25q88 0 159.5 100.5t71.5 259.5q0 163 -74.5 282t-200 178t-284.5 59q-172 0 -306 -81
t-206 -221t-72 -313q0 -271 172.5 -438.5t440.5 -167.5q124 0 234.5 44t195.5 122h182q-107 -158 -270 -244t-355 -86q-219 0 -402.5 99.5t-291.5 278t-108 396.5q0 161 63 305t169.5 246.5t252 162.5t305.5 60q139 0 269 -45.5t230.5 -126t161 -201t60.5 -259.5
q0 -125 -41 -230t-102 -170.5t-134.5 -111.5t-136 -65t-108.5 -19q-48 0 -81 27.5t-36 80.5l-4 2q-43 -47 -100.5 -78.5t-114.5 -31.5q-134 0 -232 105.5t-98 250.5q0 129 53.5 244t156 188.5t229.5 73.5q165 0 247 -133z" />
    <glyph glyph-name="A" unicode="A" horiz-adv-x="1478" 
d="M467 303l-102 -303h-324l524 1470h355l518 -1470h-334l-94 303h-543zM737 1139l-188 -582h375l-183 582h-4z" />
    <glyph glyph-name="B" unicode="B" horiz-adv-x="1478" 
d="M156 0v1470h714q103 0 184.5 -25t131 -63.5t81.5 -90t44 -100t12 -97.5q0 -60 -14 -109.5t-31 -78.5t-46.5 -55t-45.5 -35t-43 -23q227 -86 227 -357q0 -87 -34 -166t-93 -137q-48 -47 -92 -72.5t-136.5 -43t-236.5 -17.5h-622zM451 647v-393h376q236 0 236 215
q0 90 -64 134t-157 44h-391zM451 1217v-322h360q97 0 157 40.5t60 123.5q0 87 -57 122.5t-168 35.5h-352z" />
    <glyph glyph-name="C" unicode="C" horiz-adv-x="1478" 
d="M1401 989h-307q-8 27 -13 42.5t-18 45.5t-27.5 49.5t-40 44t-56 38.5t-75 24t-96.5 10q-48 0 -94.5 -13t-97 -48.5t-88 -91t-61.5 -149t-24 -212.5q0 -102 21 -190t63.5 -159t114.5 -112t166 -41q128 0 213 71.5t113 205.5h307q-48 -250 -210 -396.5t-429 -146.5
q-148 0 -270.5 50t-212 145t-139.5 242.5t-50 334.5q0 188 52 337.5t144 244t214 144.5t266 50q127 0 233 -33.5t176.5 -87t121 -123t75 -139t29.5 -137.5z" />
    <glyph glyph-name="D" unicode="D" horiz-adv-x="1478" 
d="M156 0v1470h649q103 0 189 -24.5t146.5 -65t107.5 -98.5t76 -119.5t47 -132t25 -133.5t7 -127q0 -71 -8 -142t-28 -148t-51 -145.5t-79.5 -130.5t-110 -106.5t-147 -71t-186.5 -26.5h-637zM457 1217v-963h299q90 0 157 42.5t104.5 115t55 156.5t17.5 180q0 90 -12 162.5
t-31.5 120.5t-48.5 83.5t-57.5 54.5t-64.5 30.5t-63.5 14.5t-60.5 3h-295z" />
    <glyph glyph-name="E" unicode="E" horiz-adv-x="1366" 
d="M1237 1470v-260h-780v-309h717v-260h-717v-381h815v-260h-1116v1470h1081z" />
    <glyph glyph-name="F" unicode="F" horiz-adv-x="1251" 
d="M463 618v-618h-307v1470h1046v-260h-739v-331h647v-261h-647z" />
    <glyph glyph-name="G" unicode="G" horiz-adv-x="1593" 
d="M846 545v248h614v-793h-205l-30 184q-33 -39 -52.5 -59.5t-64.5 -56.5t-88 -55.5t-110 -35.5t-144 -16q-107 0 -206 30t-185 93t-149 152.5t-99.5 216.5t-36.5 278q0 123 26.5 235.5t84 212t140.5 173t203 116t265 41.5q109 0 203 -22.5t161.5 -61t120.5 -87.5t86 -105.5
t51.5 -111t22.5 -107.5h-307q0 18 -12 47t-39 62.5t-63.5 63t-91 49t-116.5 19.5q-85 0 -159 -30.5t-134 -91.5t-94.5 -165.5t-34.5 -240.5q0 -116 25 -206t65 -145.5t97 -91.5t115.5 -49.5t125.5 -13.5q27 0 57.5 4.5t78.5 24.5t88 52.5t77.5 95.5t55.5 147h-342z" />
    <glyph glyph-name="H" unicode="H" horiz-adv-x="1478" 
d="M1026 659h-573v-659h-308v1470h308v-557h573v557h307v-1470h-307v659z" />
    <glyph glyph-name="I" unicode="I" horiz-adv-x="569" 
d="M438 1470v-1470h-307v1470h307z" />
    <glyph glyph-name="J" unicode="J" 
d="M991 1470v-1044q0 -231 -116.5 -347t-339.5 -116q-102 0 -181 19.5t-130 47t-87 80t-53.5 93t-26.5 114t-10.5 116t-1.5 122.5h287q0 -78 3 -125.5t13 -94t29.5 -71t52.5 -39t82 -14.5q57 0 93.5 16.5t52.5 50t21 65.5t5 83v1044h307z" />
    <glyph glyph-name="K" unicode="K" horiz-adv-x="1478" 
d="M485 498v-498h-307v1470h307v-598l562 598h397l-600 -602l635 -868h-396l-454 645z" />
    <glyph glyph-name="L" unicode="L" horiz-adv-x="1251" 
d="M463 1470v-1204h731v-266h-1038v1470h307z" />
    <glyph glyph-name="M" unicode="M" horiz-adv-x="1705" 
d="M1567 1470v-1470h-287v1229h-4l-275 -1229h-301l-268 1229h-4v-1229h-287v1470h449l266 -1159h4l262 1159h445z" />
    <glyph glyph-name="N" unicode="N" horiz-adv-x="1478" 
d="M1053 446v1024h286v-1470h-307l-600 1049h-4v-1049h-287v1470h324l584 -1024h4z" />
    <glyph glyph-name="O" unicode="O" horiz-adv-x="1593" 
d="M90 735q0 142 29.5 259.5t76 196t111.5 138.5t129 93t136 53.5t124 27t101 6.5t101 -6.5t123.5 -27t135.5 -53.5t129 -93t111.5 -138.5t76 -196t29.5 -259.5t-29.5 -259.5t-76 -196t-111.5 -138.5t-129 -93t-135.5 -53.5t-123.5 -27t-101 -6.5t-101 6.5t-124 27
t-136 53.5t-129 93t-111.5 138.5t-76 196t-29.5 259.5zM397 735q0 -118 26 -211t66.5 -148.5t95.5 -91.5t106.5 -49.5t105.5 -13.5t105.5 13.5t106 49.5t95 91.5t66.5 148.5t26 211t-26 211t-66.5 148.5t-95 91.5t-106 49.5t-105.5 13.5t-105.5 -13.5t-106.5 -49.5
t-95.5 -91.5t-66.5 -148.5t-26 -211z" />
    <glyph glyph-name="P" unicode="P" horiz-adv-x="1366" 
d="M463 530v-530h-307v1470h671q213 0 335 -126.5t122 -344.5q0 -47 -10 -100.5t-42 -121.5t-81 -121t-136.5 -89.5t-199.5 -36.5h-352zM463 784h285q47 0 84.5 10t61 23.5t40.5 36.5t25 41t12.5 45t5 40t0.5 34q0 107 -63.5 155t-206.5 48h-244v-433z" />
    <glyph glyph-name="Q" unicode="Q" horiz-adv-x="1593" 
d="M815 399l158 166l155 -145q68 126 68 315q0 118 -26 211t-66.5 148.5t-95 91.5t-106 49.5t-105.5 13.5t-105.5 -13.5t-106.5 -49.5t-95.5 -91.5t-66.5 -148.5t-26 -211t26 -211t66.5 -148.5t95.5 -91.5t106.5 -49.5t105.5 -13.5q92 0 166 39zM1509 59l-161 -165l-174 165
q-166 -98 -377 -98q-49 0 -101 6.5t-124 27t-136 53.5t-129 93t-111.5 138.5t-76 196t-29.5 259.5t29.5 259.5t76 196t111.5 138.5t129 93t136 53.5t124 27t101 6.5t101 -6.5t123.5 -27t135.5 -53.5t129 -93t111.5 -138.5t76 -196t29.5 -259.5q0 -328 -153 -524z" />
    <glyph glyph-name="R" unicode="R" horiz-adv-x="1478" 
d="M156 0v1470h743q111 0 197.5 -31.5t135 -77.5t79.5 -105.5t41 -108t10 -92.5q0 -124 -60 -219t-167 -131q42 -18 66.5 -33t50.5 -42t39 -64t21.5 -95t8.5 -139q0 -176 9 -225.5t56 -67.5v-39h-339q-33 116 -33 297q0 49 -1.5 79t-6.5 63.5t-15 52t-27 37t-43 27t-62 14
t-85 5.5h-317v-575h-301zM457 823h360q122 0 180 47t58 154q0 34 -9 64t-30.5 61t-66.5 49.5t-109 18.5h-383v-394z" />
    <glyph glyph-name="S" unicode="S" horiz-adv-x="1366" 
d="M80 453h295q1 -29 7 -56.5t26.5 -62t52.5 -59.5t90.5 -42.5t134.5 -17.5q47 0 88 4.5t82.5 18t70.5 34t47.5 55t18.5 79.5q0 34 -14 60t-33.5 43t-58.5 32.5t-71 24t-89 22.5l-158 37q-68 16 -102.5 24.5t-93 28t-89.5 38.5t-71.5 52t-61 71.5t-35 94t-14.5 123.5
q0 56 12.5 110.5t50 118.5t97.5 111.5t165 79.5t241 32q129 0 232 -32.5t165 -82.5t103 -115.5t56.5 -125.5t16.5 -119h-295q-3 28 -8 49t-24.5 56t-49 58t-86.5 40.5t-133 17.5q-64 0 -119 -15.5t-96 -56.5t-41 -104q0 -41 14.5 -70t42 -45t48 -23.5t51.5 -14.5l358 -88
q67 -16 118 -34.5t103.5 -50t86.5 -72t55.5 -101.5t21.5 -138q0 -91 -26 -165.5t-66 -123.5t-96 -86t-108.5 -56.5t-111.5 -31.5t-97.5 -15t-73.5 -3q-111 0 -203.5 18t-156.5 47.5t-113 71t-78 85t-47 93.5t-24.5 92t-6.5 85z" />
    <glyph glyph-name="T" unicode="T" horiz-adv-x="1251" 
d="M780 1210v-1210h-307v1210h-444v260h1196v-260h-445z" />
    <glyph glyph-name="U" unicode="U" horiz-adv-x="1478" 
d="M1333 1470v-956q0 -282 -158 -417.5t-446 -135.5q-125 0 -251.5 40t-215.5 138q-109 122 -115 357v974h314v-954q0 -146 73.5 -220.5t188.5 -74.5q154 0 225.5 71.5t71.5 209.5v968h313z" />
    <glyph glyph-name="V" unicode="V" horiz-adv-x="1366" 
d="M688 356l320 1114h319l-500 -1470h-292l-496 1470h330l315 -1114h4z" />
    <glyph glyph-name="W" unicode="W" horiz-adv-x="1933" 
d="M449 0l-416 1470h327q132 -564 172 -750t62 -325h4q80 457 205 1075h325q180 -844 220 -1075h4q44 245 239 1075h312l-414 -1470h-295q-159 754 -227 1147h-4q-12 -72 -23 -137t-19.5 -111.5t-30.5 -153.5t-34.5 -167t-53.5 -256t-67 -322h-286z" />
    <glyph glyph-name="X" unicode="X" horiz-adv-x="1366" 
d="M858 764l479 -764h-374l-279 502l-297 -502h-358l475 752l-449 718h367l262 -475l268 475h355z" />
    <glyph glyph-name="Y" unicode="Y" horiz-adv-x="1366" 
d="M846 551v-551h-307v555l-508 915h362l305 -639l291 639h348z" />
    <glyph glyph-name="Z" unicode="Z" horiz-adv-x="1251" 
d="M1200 260v-260h-1149v260l760 950h-739v260h1124v-241l-770 -969h774z" />
    <glyph glyph-name="bracketleft" unicode="[" horiz-adv-x="681" 
d="M379 1282v-1487h254v-196h-504v1880h504v-197h-254z" />
    <glyph glyph-name="backslash" unicode="\" horiz-adv-x="569" 
d="M397 -39l-465 1548h240l465 -1548h-240z" />
    <glyph glyph-name="bracketright" unicode="]" horiz-adv-x="681" 
d="M303 -205v1487h-254v197h504v-1880h-504v196h254z" />
    <glyph glyph-name="asciicircum" unicode="^" horiz-adv-x="1196" 
d="M350 662h-223l369 768h204l369 -768h-225l-246 538z" />
    <glyph glyph-name="underscore" unicode="_" 
d="M0 -154h1139v-102h-1139v102z" />
    <glyph glyph-name="grave" unicode="`" horiz-adv-x="681" 
d="M254 1237l-301 299h315l193 -299h-207z" />
    <glyph glyph-name="a" unicode="a" 
d="M1016 803v-590q0 -89 16 -124.5t47 -45.5v-43h-309q-21 66 -27 129q-33 -34 -57.5 -54.5t-68 -48.5t-100.5 -41.5t-126 -13.5q-64 0 -121.5 18.5t-105.5 55.5t-76.5 100t-28.5 144q0 153 86.5 240t231.5 108l258 39q100 13 100 86q0 35 -13 59.5t-31 37.5t-46.5 20
t-49 8.5t-48.5 1.5q-51 0 -86.5 -14t-53 -39.5t-25 -47.5t-11.5 -51h-277q10 97 43 167.5t78 111t109.5 64.5t123.5 31t134 7q53 0 105 -6.5t113.5 -27.5t107.5 -54t77 -91.5t31 -135.5zM735 391v139q-46 -37 -194 -59q-46 -8 -76 -17t-60 -26.5t-44.5 -47.5t-14.5 -73
q0 -68 41 -99.5t92 -31.5q101 0 178.5 60t77.5 155z" />
    <glyph glyph-name="b" unicode="b" horiz-adv-x="1251" 
d="M889 537q0 68 -13 125.5t-40.5 105t-76 75t-114.5 27.5q-71 0 -121 -29.5t-76 -81.5t-37.5 -110t-11.5 -129q0 -85 24.5 -153.5t83.5 -114t146 -45.5q53 0 95 22t68 56.5t43 80t23.5 87.5t6.5 84zM412 1470v-522h4q109 170 315 170q92 0 172.5 -35.5t143.5 -103
t100 -176.5t37 -246q0 -116 -27 -218.5t-80.5 -186t-144 -132.5t-207.5 -49q-98 0 -182 39.5t-133 126.5h-4v-137h-281v1470h287z" />
    <glyph glyph-name="c" unicode="c" 
d="M780 397h291q-2 -28 -9.5 -59.5t-24 -74t-40.5 -81.5t-63.5 -78.5t-88.5 -68t-119.5 -46.5t-152.5 -18q-85 0 -156.5 18.5t-122.5 49t-91 74t-64.5 91t-40.5 102.5t-22 105.5t-6 102.5q0 135 30 243.5t92 190t163.5 126t236.5 44.5q57 0 114 -10.5t121.5 -39.5
t114.5 -73.5t86.5 -121t44.5 -173.5h-291q-5 31 -16.5 59.5t-32.5 58t-57.5 46t-83.5 13.5q-52 0 -92.5 -20t-65.5 -52t-41 -75t-22 -84t-6 -85q0 -34 0.5 -57.5t5 -64t13 -68.5t24.5 -61.5t39 -54t58.5 -34.5t80.5 -14q51 0 91 22t61 54.5t31.5 62t10.5 51.5z" />
    <glyph glyph-name="d" unicode="d" horiz-adv-x="1251" 
d="M1128 1470v-1470h-280v137h-4q-49 -86 -133.5 -126t-182.5 -40q-94 0 -171.5 32.5t-130 87.5t-88.5 130.5t-52 159.5t-16 176q0 137 36.5 246t99.5 176.5t143.5 103t172.5 35.5q207 0 316 -170h4v522h286zM365 537q0 -54 11.5 -107t36.5 -105.5t73.5 -85t113.5 -32.5
q87 0 146 45.5t83.5 114t24.5 153.5q0 71 -11.5 129t-37.5 110t-76 81.5t-121 29.5q-66 0 -114.5 -27.5t-75.5 -75.5t-40 -105t-13 -125z" />
    <glyph glyph-name="e" unicode="e" 
d="M774 319h295q-27 -94 -79.5 -164t-119.5 -109t-136.5 -57t-143.5 -18q-95 0 -174.5 18.5t-149 62t-117 111t-75 170t-27.5 234.5q0 35 3.5 72.5t17 93.5t34.5 106t61.5 102.5t93 90.5t133.5 62t179 24q71 0 136.5 -14t136 -54.5t121.5 -104.5t84.5 -174t33.5 -253v-51
h-747q3 -26 4.5 -41t9 -46.5t17.5 -52t29.5 -47t45 -42t64 -26.5t86.5 -11q63 0 115 31t69 87zM342 653h444q-6 63 -28 109.5t-54.5 72t-67 37t-71.5 11.5q-99 0 -155 -60t-68 -170z" />
    <glyph glyph-name="f" unicode="f" horiz-adv-x="681" 
d="M465 885v-885h-287v885h-158v205h158v88q0 311 320 311q97 0 147 -4v-232h-80q-30 0 -48.5 -4.5t-29 -11t-15.5 -24t-6 -33t-1 -47.5v-43h186v-205h-186z" />
    <glyph glyph-name="g" unicode="g" horiz-adv-x="1251" 
d="M858 1090h275v-1033q0 -39 -1 -67t-6.5 -71.5t-15.5 -75.5t-30 -72t-47 -68.5t-69.5 -58t-95.5 -47.5t-126 -29.5t-160 -11.5q-69 0 -134.5 11.5t-126.5 37.5t-107 63t-75.5 92.5t-32.5 122.5h312q6 -25 14 -41t27.5 -34t59.5 -26.5t99 -8.5q117 0 172.5 59.5t55.5 190.5
v131l-4 4q-42 -76 -108 -120t-183 -44q-100 0 -184 35t-148.5 103t-100.5 177t-36 248q0 137 37 246t100 176.5t143.5 103t172.5 35.5q227 0 319 -190h4v162zM377 539q0 -44 7 -85t24 -81.5t42.5 -70t65 -48t88.5 -18.5q70 0 120 27.5t75.5 75t37 99.5t11.5 113
q0 138 -65 228.5t-181 90.5q-43 0 -80.5 -16.5t-71 -53t-53.5 -103.5t-20 -158z" />
    <glyph glyph-name="h" unicode="h" horiz-adv-x="1251" 
d="M1118 754v-754h-287v662q0 27 -1.5 44.5t-6.5 46t-17 47.5t-31.5 38.5t-52.5 29t-77 9.5q-99 0 -162 -66t-63 -186v-625h-287v1470h287v-522h4q29 71 115.5 120.5t199.5 49.5q167 0 273 -95t106 -269z" />
    <glyph glyph-name="i" unicode="i" horiz-adv-x="569" 
d="M141 1090h287v-1090h-287v1090zM428 1485v-266h-287v266h287z" />
    <glyph glyph-name="j" unicode="j" horiz-adv-x="569" 
d="M428 1090v-1205q0 -70 -10 -122.5t-32.5 -88t-50 -58t-70 -34.5t-85 -16t-102.5 -4h-72v229h51q13 0 20.5 0.5t21 6t21.5 15t14.5 30t6.5 48.5v1199h287zM428 1485v-266h-287v266h287z" />
    <glyph glyph-name="k" unicode="k" 
d="M428 344v-344h-287v1470h287v-794l360 414h353l-385 -422l395 -668h-344l-260 467z" />
    <glyph glyph-name="l" unicode="l" horiz-adv-x="569" 
d="M428 1470v-1470h-287v1470h287z" />
    <glyph glyph-name="m" unicode="m" horiz-adv-x="1820" 
d="M1692 754v-754h-287v662q0 114 -43 164.5t-113 50.5q-194 0 -194 -224v-653h-287v655q0 27 -0.5 42t-3.5 42t-9.5 43t-19 36t-30 31.5t-45.5 19.5t-64 8q-178 0 -178 -213v-664h-287v1090h275v-160h4q97 188 309 188q113 0 178.5 -40.5t124.5 -133.5q18 26 28 39.5
t39.5 43.5t57 46.5t72.5 30.5t94 14q167 0 273 -95t106 -269z" />
    <glyph glyph-name="n" unicode="n" horiz-adv-x="1251" 
d="M1118 754v-754h-287v662q0 27 -1.5 44.5t-6.5 46t-17 47.5t-31.5 38.5t-52.5 29t-77 9.5q-99 0 -162 -66t-63 -186v-625h-287v1090h275v-160h4q15 26 29 45.5t43 48.5t61.5 47.5t83.5 32.5t110 14q167 0 273 -95t106 -269z" />
    <glyph glyph-name="o" unicode="o" horiz-adv-x="1251" 
d="M1184 545q0 -115 -30 -210.5t-82 -162t-122.5 -112.5t-152 -67.5t-170.5 -21.5t-170.5 21.5t-152 67.5t-122.5 112.5t-82 162t-30 210.5q0 143 45.5 254.5t123.5 180t177 103.5t211 35t211 -35t177 -103.5t123.5 -180t45.5 -254.5zM889 545q0 47 -5.5 88.5t-23 88
t-45.5 79.5t-76.5 54.5t-111.5 21.5t-111.5 -21.5t-76.5 -54.5t-45.5 -79.5t-23 -88t-5.5 -88.5t5.5 -88.5t23 -88t45.5 -79.5t76.5 -54.5t111.5 -21.5t111.5 21.5t76.5 54.5t45.5 79.5t23 88t5.5 88.5z" />
    <glyph glyph-name="p" unicode="p" horiz-adv-x="1251" 
d="M401 520q0 -86 24 -154t82.5 -113.5t145.5 -45.5q53 0 95 22t68 56.5t43 80t23.5 87.5t6.5 84q0 68 -13 125.5t-40.5 105t-76 75t-114.5 27.5q-244 0 -244 -350zM401 1090v-158h5q19 30 36 52.5t45.5 49.5t61 44t79.5 28.5t103 11.5q92 0 172.5 -35.5t143.5 -103
t100 -176.5t37 -246q0 -116 -27 -218.5t-80.5 -186t-144 -132.5t-207.5 -49q-57 0 -105.5 12.5t-79 29t-57.5 42.5t-39 43t-26 41h-4v-563h-287v1514h274z" />
    <glyph glyph-name="q" unicode="q" horiz-adv-x="1251" 
d="M856 1090h274v-1514h-286v559h-4q-87 -164 -310 -164q-98 0 -178.5 35.5t-131.5 92t-86 130t-49.5 147t-14.5 146.5q0 93 17 178.5t54 162t91.5 133t135.5 89.5t179 33q53 0 99 -13.5t76.5 -32t58 -47t41.5 -49.5t30 -48h4v162zM365 524q0 -311 245 -311q107 0 173.5 83
t66.5 243q0 85 -20.5 149.5t-48.5 97.5t-65.5 53.5t-63 25.5t-48.5 5q-45 0 -84.5 -16t-76 -52.5t-57.5 -107.5t-21 -170z" />
    <glyph glyph-name="r" unicode="r" horiz-adv-x="796" 
d="M131 0v1090h275v-189h4q21 40 37 66t43 57.5t55.5 50t71 31t92.5 12.5q19 0 55 -4v-291q-25 4 -82 4q-264 0 -264 -260v-567h-287z" />
    <glyph glyph-name="s" unicode="s" 
d="M1030 758h-280q-5 32 -13.5 53t-28 44t-57.5 34.5t-94 11.5q-104 0 -140 -30t-36 -76q0 -30 29.5 -52t77.5 -34t109 -26t125 -26.5t125 -37.5t109 -57.5t77.5 -88t29.5 -127.5q0 -91 -34 -160.5t-84.5 -109t-118 -64.5t-125 -33t-115.5 -8q-100 0 -187 19t-164.5 60
t-124 117.5t-49.5 180.5h295q0 -160 238 -160q98 0 140 36t42 77q0 36 -37.5 60.5t-97 38t-131.5 27t-144 35.5t-131.5 55t-97 93.5t-37.5 143.5q0 51 13 99.5t45 97.5t80.5 85.5t126.5 59t176 22.5q462 0 489 -360z" />
    <glyph glyph-name="t" unicode="t" horiz-adv-x="681" 
d="M455 1384v-294h178v-205h-178v-592q0 -29 2 -41.5t13 -25.5t35.5 -17t67.5 -4q20 0 60 4v-217q-90 -4 -135 -4h-37q-90 0 -150 16t-90 49.5t-41.5 72.5t-11.5 97v662h-148v205h148v294h287z" />
    <glyph glyph-name="u" unicode="u" horiz-adv-x="1251" 
d="M1116 1090v-1090h-274v154h-4q-103 -183 -332 -183q-169 0 -270 100.5t-101 301.5v717h287v-676q0 -201 186 -201q39 0 75 12t70.5 38.5t55 77.5t20.5 120v629h287z" />
    <glyph glyph-name="v" unicode="v" 
d="M1112 1090l-393 -1090h-301l-391 1090h319l225 -803h4l232 803h305z" />
    <glyph glyph-name="w" unicode="w" horiz-adv-x="1593" 
d="M1575 1090l-313 -1090h-295l-170 795h-4l-170 -795h-295l-308 1090h306l170 -783h4l153 783h289l164 -783h4l170 783h295z" />
    <glyph glyph-name="x" unicode="x" 
d="M737 555l371 -555h-354l-189 328l-188 -328h-346l370 555l-356 535h348l185 -318l180 318h338z" />
    <glyph glyph-name="y" unicode="y" 
d="M1104 1090l-375 -1072q-28 -83 -46.5 -135.5t-41 -105t-39.5 -81.5t-41 -56.5t-46 -40t-55.5 -22.5t-68 -12.5t-84.5 -2.5q-47 0 -129 4v229q24 -4 55 -4q44 0 70.5 4.5t52 21t41 50t25.5 88.5l-402 1135h320l233 -803h5l223 803h303z" />
    <glyph glyph-name="z" unicode="z" horiz-adv-x="1024" 
d="M963 854l-551 -618h571v-236h-942v223l559 637h-520v230h883v-236z" />
    <glyph glyph-name="braceleft" unicode="{" horiz-adv-x="796" 
d="M748 -221v-180h-170q-50 0 -99.5 17t-92 50t-69 88.5t-26.5 124.5v410q0 45 -21.5 77.5t-54.5 48t-62 22.5t-55 7v189q26 0 55 7t62 22.5t54.5 48t21.5 77.5v410q0 69 26.5 124.5t69 88.5t92 50.5t99.5 17.5h170v-181h-93q-30 0 -51.5 -8.5t-33.5 -21t-18.5 -32
t-8.5 -35.5t-2 -38v-401q-6 -50 -26 -89t-45.5 -62.5t-57.5 -39t-57 -22t-48 -8.5v-4q23 -2 48 -8.5t57 -22.5t57.5 -39t45.5 -62.5t26 -89.5v-401q0 -22 2 -38t8.5 -35.5t18.5 -32t33.5 -21t51.5 -8.5h93z" />
    <glyph glyph-name="bar" unicode="|" horiz-adv-x="573" 
d="M172 1587h229v-2048h-229v2048z" />
    <glyph glyph-name="braceright" unicode="}" horiz-adv-x="796" 
d="M698 633v-189q-26 0 -55 -7t-61.5 -22.5t-54 -48t-21.5 -77.5v-410q0 -69 -26.5 -124.5t-69 -88.5t-92 -50t-99.5 -17h-170v180h92q37 0 61.5 12t35.5 33.5t14.5 42t3.5 47.5v401q6 50 26 89.5t45.5 62.5t57 39t56.5 22.5t48 8.5v4q-23 2 -48 8.5t-56.5 22t-57 39
t-45.5 62.5t-26 89v401q0 27 -3.5 47.5t-14.5 42t-35.5 33.5t-61.5 12h-92v181h170q50 0 99.5 -17.5t92 -50.5t69 -88.5t26.5 -124.5v-410q0 -45 21.5 -77.5t54 -48t61.5 -22.5t55 -7z" />
    <glyph glyph-name="asciitilde" unicode="~" horiz-adv-x="1196" 
d="M997 702l74 -184q-23 -32 -38.5 -52t-41 -46.5t-49.5 -41t-57 -25.5t-70 -11q-84 0 -209 68q-130 73 -235 73q-104 0 -172 -149l-74 184q92 176 256 176q82 0 227 -65q16 -7 55 -25t59 -26.5t48 -16.5t47 -8q29 0 55 11.5t49.5 37.5t38 45t37.5 55z" />
    <glyph glyph-name="sterling" unicode="&#xa3;" 
d="M770 780v-123h-244q11 -68 11 -108q0 -125 -88 -227q-29 -37 -121 -111l4 -4q133 53 231 53q72 0 146 -22q89 -29 108 -29q48 0 106 22.5t101 51.5l84 -224q-151 -92 -311 -92q-40 0 -99.5 11.5t-99.5 25.5q-128 45 -199 45q-39 0 -80 -13.5t-143 -58.5l-110 199
q15 6 49.5 32t75.5 66t71.5 95t30.5 106q0 41 -15 95t-32 87h-189v123h119q-52 111 -68 164t-16 127q0 47 15 98t52 105.5t91 97.5t140.5 70.5t191.5 27.5q69 0 133 -12.5t130 -45.5t115 -84.5t81 -136.5t34 -194h-268q-7 48 -14 79.5t-23 66t-39 53.5t-61 32t-90 13
q-56 0 -97.5 -20t-62.5 -51t-31 -60.5t-10 -56.5q0 -33 16 -80t82 -193h293z" />
    <glyph glyph-name="currency" unicode="&#xa4;" 
d="M569 500q94 0 153.5 66.5t59.5 164.5t-59.5 162.5t-153.5 64.5t-151.5 -64.5t-57.5 -162.5q0 -99 58 -165t151 -66zM-6 291l201 201q-64 103 -64 239q0 65 18 129t46 107l-201 200l135 136l201 -201q108 67 239 67q139 0 240 -67l201 201l135 -136l-201 -200
q68 -103 68 -236q0 -136 -68 -239l201 -201l-135 -135l-201 200q-101 -67 -240 -67q-131 0 -239 67l-201 -200z" />
    <glyph glyph-name="brokenbar" unicode="&#xa6;" horiz-adv-x="573" 
d="M172 717v717h229v-717h-229zM172 -307v717h229v-717h-229z" />
    <glyph glyph-name="section" unicode="&#xa7;" 
d="M492 1049l331 -166q57 -29 96.5 -56t76 -66.5t55 -92.5t18.5 -119q0 -21 -10.5 -55t-32 -75.5t-61.5 -81.5t-91 -63q127 -105 127 -262q0 -94 -37 -170t-100 -122.5t-141 -71.5t-164 -25q-75 0 -138.5 16t-106.5 42t-76.5 61.5t-53.5 70.5t-32.5 73.5t-17.5 66.5t-5 53
h270q17 -166 181 -166q44 0 75.5 16.5t45.5 42t20 47t6 40.5q0 49 -28 77.5t-93 61.5l-313 160q-78 40 -123.5 79.5t-72.5 101t-27 148.5q0 165 190 271q-106 97 -106 237q0 71 27.5 136.5t78.5 117t130.5 82.5t176.5 31q61 0 116 -10.5t109 -37.5t94 -68t66 -107.5
t29 -151.5h-260q-5 74 -45 116t-115 42q-67 0 -107 -35.5t-40 -79.5q0 -68 78 -108zM698 633l-299 151q-42 -15 -65 -53t-23 -65q0 -44 24.5 -73.5t70.5 -53.5l321 -172q88 50 88 135q0 41 -31.5 72t-85.5 59z" />
    <glyph glyph-name="dieresis" unicode="&#xa8;" horiz-adv-x="681" 
d="M270 1493v-236h-258v236h258zM670 1493v-236h-258v236h258z" />
    <glyph glyph-name="copyright" unicode="&#xa9;" horiz-adv-x="1509" 
d="M1534 737q0 -178 -64 -326.5t-171.5 -245.5t-247.5 -150.5t-295 -53.5t-295 53.5t-248 150.5t-172 245.5t-64 326.5t64 326t172 244t248 149t295 53t295 -52.5t247.5 -149t171.5 -244.5t64 -326zM1311 737q0 130 -44.5 242.5t-120 188.5t-177 119.5t-213.5 43.5
q-114 0 -216 -43t-177 -120t-118.5 -188.5t-43.5 -242.5t43.5 -244t118.5 -189.5t177 -120t216 -42.5v-2q112 0 213.5 43.5t177 120.5t120 190t44.5 244zM969 621h184q-24 -151 -126.5 -236.5t-240.5 -85.5q-190 0 -308 126.5t-118 317.5q0 194 114.5 318.5t307.5 124.5
q142 0 240.5 -81.5t122.5 -232.5h-176q-13 67 -65 101.5t-122 34.5q-99 0 -155 -70t-56 -190q0 -115 60.5 -193t154.5 -78q78 0 127.5 37t55.5 107z" />
    <glyph glyph-name="guillemotleft" unicode="&#xab;" 
d="M522 754l-205 -181l205 -180v-237l-342 295v245l342 295v-237zM958 754l-204 -181l204 -180v-237l-342 295v245l342 295v-237z" />
    <glyph glyph-name="logicalnot" unicode="&#xac;" horiz-adv-x="1196" 
d="M885 221v408h-803v229h1032v-637h-229z" />
    <glyph glyph-name="registered" unicode="&#xae;" horiz-adv-x="1509" 
d="M627 670v-351h-178v834h311q170 0 256 -57.5t86 -194.5q0 -203 -201 -217l213 -365h-211l-192 351h-84zM627 811h157q66 0 96.5 22t30.5 87q0 30 -14 50t-41 28.5t-49.5 11t-54.5 2.5h-125v-201zM1532 735q0 -143 -41 -267.5t-114 -216.5t-170.5 -158t-212.5 -99
t-238 -33q-124 0 -239 33t-213 99t-171 158t-114.5 216.5t-41.5 267.5t41.5 267.5t114.5 216.5t171 158t213 99t239 33q123 0 238 -33t212.5 -99t170.5 -158t114 -216.5t41 -267.5zM1309 735q0 130 -44.5 242.5t-120 188.5t-176 119.5t-212.5 43.5q-114 0 -216 -43
t-177 -120t-118.5 -188.5t-43.5 -242.5t43.5 -243t118.5 -188.5t177 -120t216 -42.5v-2q111 0 212 43.5t176.5 120.5t120 189.5t44.5 242.5z" />
    <glyph glyph-name="degree" unicode="&#xb0;" horiz-adv-x="819" 
d="M117 1165q0 121 85.5 207t207.5 86q121 0 206.5 -85.5t85.5 -207.5t-85.5 -207.5t-206.5 -85.5q-122 0 -207.5 86t-85.5 207zM231 1165q0 -73 52.5 -125.5t126.5 -52.5t126 52.5t52 125.5t-52 125.5t-126 52.5t-126.5 -52.5t-52.5 -125.5z" />
    <glyph glyph-name="plusminus" unicode="&#xb1;" horiz-adv-x="1196" 
d="M483 780v256h230v-256h401v-229h-401v-258h-230v258h-401v229h401zM82 0v229h1032v-229h-1032z" />
    <glyph glyph-name="acute" unicode="&#xb4;" horiz-adv-x="681" 
d="M729 1536l-301 -299h-207l193 299h315z" />
    <glyph glyph-name="mu" unicode="&#xb5;" horiz-adv-x="1251" 
d="M1116 1090v-1090h-274v154h-4q-47 -87 -118 -135t-136 -48q-60 0 -96.5 12.5t-65.5 41.5v-449h-287v1514h287v-676q0 -201 186 -201q39 0 75 12t70.5 38.5t55 77.5t20.5 120v629h287z" />
    <glyph glyph-name="mu" unicode="&#x3bc;" horiz-adv-x="1251" 
d="M1116 1090v-1090h-274v154h-4q-47 -87 -118 -135t-136 -48q-60 0 -96.5 12.5t-65.5 41.5v-449h-287v1514h287v-676q0 -201 186 -201q39 0 75 12t70.5 38.5t55 77.5t20.5 120v629h287z" />
    <glyph glyph-name="paragraph" unicode="&#xb6;" 
d="M438 -391v1102q-216 0 -335 94t-119 260q0 106 37 180t107 114t156 57.5t199 17.5h621v-1825h-230v1651h-206v-1651h-230z" />
    <glyph glyph-name="periodcentered" unicode="&#xb7;" horiz-adv-x="569" 
d="M119 518q0 69 48.5 117.5t117.5 48.5t117.5 -48.5t48.5 -117.5t-47.5 -117.5t-118.5 -48.5t-118.5 48.5t-47.5 117.5z" />
    <glyph glyph-name="periodcentered" unicode="&#x2219;" horiz-adv-x="569" 
d="M119 518q0 69 48.5 117.5t117.5 48.5t117.5 -48.5t48.5 -117.5t-47.5 -117.5t-118.5 -48.5t-118.5 48.5t-47.5 117.5z" />
    <glyph glyph-name="cedilla" unicode="&#xb8;" horiz-adv-x="681" 
d="M106 -172l113 172h121l-78 -113q38 9 62 9q25 0 52.5 -7.5t57.5 -24t49 -50t19 -78.5q0 -89 -71 -146t-183 -57q-58 0 -104.5 10t-131.5 41l45 99q109 -33 158 -33q36 0 66 22t30 58q0 34 -23.5 53.5t-56.5 19.5q-27 0 -81 -16z" />
    <glyph glyph-name="guillemotright" unicode="&#xbb;" 
d="M821 573l-205 181v237l342 -295v-245l-342 -295v237zM385 573l-205 181v237l342 -295v-245l-342 -295v237z" />
    <glyph glyph-name="Aacute" unicode="&#xc1;" horiz-adv-x="1478" 
d="M467 303l-102 -303h-324l524 1470h355l518 -1470h-334l-94 303h-543zM737 1139l-188 -582h375l-183 582h-4zM1128 1917l-301 -299h-206l192 299h315z" />
    <glyph glyph-name="Acircumflex" unicode="&#xc2;" horiz-adv-x="1478" 
d="M467 303l-102 -303h-324l524 1470h355l518 -1470h-334l-94 303h-543zM737 1139l-188 -582h375l-183 582h-4zM868 1917l234 -299h-232l-131 168l-129 -168h-231l233 299h256z" />
    <glyph glyph-name="Adieresis" unicode="&#xc4;" horiz-adv-x="1478" 
d="M467 303l-102 -303h-324l524 1470h355l518 -1470h-334l-94 303h-543zM737 1139l-188 -582h375l-183 582h-4zM670 1874v-236h-258v236h258zM1069 1874v-236h-258v236h258z" />
    <glyph glyph-name="Ccedilla" unicode="&#xc7;" horiz-adv-x="1478" 
d="M1094 504h307q-46 -241 -198.5 -386t-403.5 -155l-54 -76q37 9 62 9t52.5 -7.5t57.5 -24t49 -50t19 -78.5q0 -89 -71 -146t-183 -57q-58 0 -104 10t-131 41l45 99q109 -33 157 -33q36 0 66.5 22t30.5 58q0 34 -23.5 53.5t-56.5 19.5q-28 0 -82 -16l-43 41l90 137
q-131 13 -238.5 68.5t-186 150.5t-122 235t-43.5 314q0 188 52 337.5t144 244t214 144.5t266 50q127 0 233 -33.5t176.5 -87t121 -123t75 -139t29.5 -137.5h-307q-8 27 -13 42.5t-18 45.5t-27.5 49.5t-40 44t-56 38.5t-75 24t-96.5 10q-48 0 -94.5 -13t-97 -48.5t-88 -91
t-61.5 -149t-24 -212.5q0 -102 21 -190t63.5 -159t114.5 -112t166 -41q128 0 213 71.5t113 205.5z" />
    <glyph glyph-name="Eacute" unicode="&#xc9;" horiz-adv-x="1366" 
d="M1237 1470v-260h-780v-309h717v-260h-717v-381h815v-260h-1116v1470h1081zM1071 1917l-301 -299h-207l193 299h315z" />
    <glyph glyph-name="Edieresis" unicode="&#xcb;" horiz-adv-x="1366" 
d="M1237 1470v-260h-780v-309h717v-260h-717v-381h815v-260h-1116v1470h1081zM612 1874v-236h-258v236h258zM1012 1874v-236h-258v236h258z" />
    <glyph glyph-name="Iacute" unicode="&#xcd;" horiz-adv-x="569" 
d="M438 1470v-1470h-307v1470h307zM674 1917l-301 -299h-207l192 299h316z" />
    <glyph glyph-name="Icircumflex" unicode="&#xce;" horiz-adv-x="569" 
d="M438 1470v-1470h-307v1470h307zM414 1917l233 -299h-231l-131 168l-129 -168h-232l234 299h256z" />
    <glyph glyph-name="Oacute" unicode="&#xd3;" horiz-adv-x="1593" 
d="M90 735q0 142 29.5 259.5t76 196t111.5 138.5t129 93t136 53.5t124 27t101 6.5t101 -6.5t123.5 -27t135.5 -53.5t129 -93t111.5 -138.5t76 -196t29.5 -259.5t-29.5 -259.5t-76 -196t-111.5 -138.5t-129 -93t-135.5 -53.5t-123.5 -27t-101 -6.5t-101 6.5t-124 27
t-136 53.5t-129 93t-111.5 138.5t-76 196t-29.5 259.5zM397 735q0 -118 26 -211t66.5 -148.5t95.5 -91.5t106.5 -49.5t105.5 -13.5t105.5 13.5t106 49.5t95 91.5t66.5 148.5t26 211t-26 211t-66.5 148.5t-95 91.5t-106 49.5t-105.5 13.5t-105.5 -13.5t-106.5 -49.5
t-95.5 -91.5t-66.5 -148.5t-26 -211zM1186 1917l-301 -299h-207l192 299h316z" />
    <glyph glyph-name="Ocircumflex" unicode="&#xd4;" horiz-adv-x="1593" 
d="M90 735q0 142 29.5 259.5t76 196t111.5 138.5t129 93t136 53.5t124 27t101 6.5t101 -6.5t123.5 -27t135.5 -53.5t129 -93t111.5 -138.5t76 -196t29.5 -259.5t-29.5 -259.5t-76 -196t-111.5 -138.5t-129 -93t-135.5 -53.5t-123.5 -27t-101 -6.5t-101 6.5t-124 27
t-136 53.5t-129 93t-111.5 138.5t-76 196t-29.5 259.5zM397 735q0 -118 26 -211t66.5 -148.5t95.5 -91.5t106.5 -49.5t105.5 -13.5t105.5 13.5t106 49.5t95 91.5t66.5 148.5t26 211t-26 211t-66.5 148.5t-95 91.5t-106 49.5t-105.5 13.5t-105.5 -13.5t-106.5 -49.5
t-95.5 -91.5t-66.5 -148.5t-26 -211zM926 1917l233 -299h-231l-131 168l-129 -168h-232l234 299h256z" />
    <glyph glyph-name="Otilde" unicode="&#xd5;" horiz-adv-x="1593" 
d="M90 735q0 142 29.5 259.5t76 196t111.5 138.5t129 93t136 53.5t124 27t101 6.5t101 -6.5t123.5 -27t135.5 -53.5t129 -93t111.5 -138.5t76 -196t29.5 -259.5t-29.5 -259.5t-76 -196t-111.5 -138.5t-129 -93t-135.5 -53.5t-123.5 -27t-101 -6.5t-101 6.5t-124 27
t-136 53.5t-129 93t-111.5 138.5t-76 196t-29.5 259.5zM397 735q0 -118 26 -211t66.5 -148.5t95.5 -91.5t106.5 -49.5t105.5 -13.5t105.5 13.5t106 49.5t95 91.5t66.5 148.5t26 211t-26 211t-66.5 148.5t-95 91.5t-106 49.5t-105.5 13.5t-105.5 -13.5t-106.5 -49.5
t-95.5 -91.5t-66.5 -148.5t-26 -211zM1040 1890h134q-4 -24 -10.5 -49.5t-24 -62.5t-40 -65t-62 -48t-87.5 -20q-56 0 -155 32q-21 6 -56 18.5t-54.5 17.5t-35.5 5q-25 0 -44.5 -10t-29.5 -26t-15 -28t-7 -24h-131q19 99 59 156q71 96 189 96q32 0 59 -7.5t88 -31.5
q91 -35 127 -35q77 0 96 82z" />
    <glyph glyph-name="Odieresis" unicode="&#xd6;" horiz-adv-x="1593" 
d="M90 735q0 142 29.5 259.5t76 196t111.5 138.5t129 93t136 53.5t124 27t101 6.5t101 -6.5t123.5 -27t135.5 -53.5t129 -93t111.5 -138.5t76 -196t29.5 -259.5t-29.5 -259.5t-76 -196t-111.5 -138.5t-129 -93t-135.5 -53.5t-123.5 -27t-101 -6.5t-101 6.5t-124 27
t-136 53.5t-129 93t-111.5 138.5t-76 196t-29.5 259.5zM397 735q0 -118 26 -211t66.5 -148.5t95.5 -91.5t106.5 -49.5t105.5 -13.5t105.5 13.5t106 49.5t95 91.5t66.5 148.5t26 211t-26 211t-66.5 148.5t-95 91.5t-106 49.5t-105.5 13.5t-105.5 -13.5t-106.5 -49.5
t-95.5 -91.5t-66.5 -148.5t-26 -211zM727 1874v-236h-258v236h258zM1126 1874v-236h-258v236h258z" />
    <glyph glyph-name="multiply" unicode="&#xd7;" horiz-adv-x="1196" 
d="M436 518l-354 354l162 162l354 -354l354 354l162 -162l-354 -354l356 -354l-164 -162l-354 354l-352 -354l-164 162z" />
    <glyph glyph-name="Uacute" unicode="&#xda;" horiz-adv-x="1478" 
d="M1333 1470v-956q0 -282 -158 -417.5t-446 -135.5q-125 0 -251.5 40t-215.5 138q-109 122 -115 357v974h314v-954q0 -146 73.5 -220.5t188.5 -74.5q154 0 225.5 71.5t71.5 209.5v968h313zM1128 1917l-301 -299h-206l192 299h315z" />
    <glyph glyph-name="Udieresis" unicode="&#xdc;" horiz-adv-x="1478" 
d="M1333 1470v-956q0 -282 -158 -417.5t-446 -135.5q-125 0 -251.5 40t-215.5 138q-109 122 -115 357v974h314v-954q0 -146 73.5 -220.5t188.5 -74.5q154 0 225.5 71.5t71.5 209.5v968h313zM670 1874v-236h-258v236h258zM1069 1874v-236h-258v236h258z" />
    <glyph glyph-name="Yacute" unicode="&#xdd;" horiz-adv-x="1366" 
d="M846 551v-551h-307v555l-508 915h362l305 -639l291 639h348zM1071 1917l-301 -299h-207l193 299h315z" />
    <glyph glyph-name="germandbls" unicode="&#xdf;" horiz-adv-x="1251" 
d="M571 -16v225q20 -2 60 -2q268 0 268 254q0 48 -11.5 85.5t-27.5 62.5t-44.5 44t-51.5 28.5t-60.5 16.5t-59 9t-58.5 4v198q32 1 48.5 2t45 5.5t44 11t35.5 19.5t30.5 31t18 46t7.5 63q0 51 -18.5 87.5t-42 54t-57.5 27.5t-51.5 11t-37.5 1q-31 0 -60.5 -9t-57.5 -29
t-45 -57.5t-17 -87.5v-1085h-287v1104q0 63 17.5 120t55.5 107t93 87t135 58t176 21q37 0 71.5 -2.5t85 -12t93 -25.5t87.5 -46.5t76 -71.5t51 -103.5t20 -139.5q0 -88 -43 -155.5t-107 -98.5q62 -28 107.5 -66t69 -74.5t37.5 -82.5t17 -78t3 -72q0 -73 -15.5 -141.5
t-53 -134.5t-93.5 -114.5t-143.5 -78t-196.5 -29.5q-33 0 -113 13z" />
    <glyph glyph-name="aacute" unicode="&#xe1;" 
d="M1016 803v-590q0 -89 16 -124.5t47 -45.5v-43h-309q-21 66 -27 129q-33 -34 -57.5 -54.5t-68 -48.5t-100.5 -41.5t-126 -13.5q-64 0 -121.5 18.5t-105.5 55.5t-76.5 100t-28.5 144q0 153 86.5 240t231.5 108l258 39q100 13 100 86q0 35 -13 59.5t-31 37.5t-46.5 20
t-49 8.5t-48.5 1.5q-51 0 -86.5 -14t-53 -39.5t-25 -47.5t-11.5 -51h-277q10 97 43 167.5t78 111t109.5 64.5t123.5 31t134 7q53 0 105 -6.5t113.5 -27.5t107.5 -54t77 -91.5t31 -135.5zM735 391v139q-46 -37 -194 -59q-46 -8 -76 -17t-60 -26.5t-44.5 -47.5t-14.5 -73
q0 -68 41 -99.5t92 -31.5q101 0 178.5 60t77.5 155zM958 1536l-301 -299h-206l192 299h315z" />
    <glyph glyph-name="acircumflex" unicode="&#xe2;" 
d="M1016 803v-590q0 -89 16 -124.5t47 -45.5v-43h-309q-21 66 -27 129q-33 -34 -57.5 -54.5t-68 -48.5t-100.5 -41.5t-126 -13.5q-64 0 -121.5 18.5t-105.5 55.5t-76.5 100t-28.5 144q0 153 86.5 240t231.5 108l258 39q100 13 100 86q0 35 -13 59.5t-31 37.5t-46.5 20
t-49 8.5t-48.5 1.5q-51 0 -86.5 -14t-53 -39.5t-25 -47.5t-11.5 -51h-277q10 97 43 167.5t78 111t109.5 64.5t123.5 31t134 7q53 0 105 -6.5t113.5 -27.5t107.5 -54t77 -91.5t31 -135.5zM735 391v139q-46 -37 -194 -59q-46 -8 -76 -17t-60 -26.5t-44.5 -47.5t-14.5 -73
q0 -68 41 -99.5t92 -31.5q101 0 178.5 60t77.5 155zM698 1536l234 -299h-232l-131 168l-129 -168h-231l233 299h256z" />
    <glyph glyph-name="adieresis" unicode="&#xe4;" 
d="M1016 803v-590q0 -89 16 -124.5t47 -45.5v-43h-309q-21 66 -27 129q-33 -34 -57.5 -54.5t-68 -48.5t-100.5 -41.5t-126 -13.5q-64 0 -121.5 18.5t-105.5 55.5t-76.5 100t-28.5 144q0 153 86.5 240t231.5 108l258 39q100 13 100 86q0 35 -13 59.5t-31 37.5t-46.5 20
t-49 8.5t-48.5 1.5q-51 0 -86.5 -14t-53 -39.5t-25 -47.5t-11.5 -51h-277q10 97 43 167.5t78 111t109.5 64.5t123.5 31t134 7q53 0 105 -6.5t113.5 -27.5t107.5 -54t77 -91.5t31 -135.5zM735 391v139q-46 -37 -194 -59q-46 -8 -76 -17t-60 -26.5t-44.5 -47.5t-14.5 -73
q0 -68 41 -99.5t92 -31.5q101 0 178.5 60t77.5 155zM500 1493v-236h-258v236h258zM899 1493v-236h-258v236h258z" />
    <glyph glyph-name="ccedilla" unicode="&#xe7;" 
d="M330 -416l45 99q109 -33 157 -33q36 0 66.5 22t30.5 58q0 34 -23.5 53.5t-56.5 19.5q-28 0 -82 -16l-43 41l96 145q-105 8 -186.5 46t-130 92.5t-79.5 126t-42.5 138.5t-11.5 138q0 135 30 243.5t92 190t163.5 126t236.5 44.5q57 0 114 -10.5t121.5 -39.5t114.5 -73.5
t86.5 -121t44.5 -173.5h-291q-5 31 -16.5 59.5t-32.5 58t-57.5 46t-83.5 13.5q-52 0 -92.5 -20t-65.5 -52t-41 -75t-22 -84t-6 -85q0 -34 0.5 -57.5t5 -64t13 -68.5t24.5 -61.5t39 -54t58.5 -34.5t80.5 -14q51 0 91 22t61 54.5t31.5 62t10.5 51.5h291q-4 -39 -15.5 -82
t-42.5 -102t-75.5 -106t-122 -85t-174.5 -47l-61 -88q38 9 61 9q25 0 52.5 -7.5t57.5 -24t49 -50t19 -78.5q0 -89 -71 -146t-183 -57q-58 0 -104 10t-131 41z" />
    <glyph glyph-name="eacute" unicode="&#xe9;" 
d="M774 319h295q-27 -94 -79.5 -164t-119.5 -109t-136.5 -57t-143.5 -18q-95 0 -174.5 18.5t-149 62t-117 111t-75 170t-27.5 234.5q0 35 3.5 72.5t17 93.5t34.5 106t61.5 102.5t93 90.5t133.5 62t179 24q71 0 136.5 -14t136 -54.5t121.5 -104.5t84.5 -174t33.5 -253v-51
h-747q3 -26 4.5 -41t9 -46.5t17.5 -52t29.5 -47t45 -42t64 -26.5t86.5 -11q63 0 115 31t69 87zM342 653h444q-6 63 -28 109.5t-54.5 72t-67 37t-71.5 11.5q-99 0 -155 -60t-68 -170zM958 1536l-301 -299h-206l192 299h315z" />
    <glyph glyph-name="edieresis" unicode="&#xeb;" 
d="M774 319h295q-27 -94 -79.5 -164t-119.5 -109t-136.5 -57t-143.5 -18q-95 0 -174.5 18.5t-149 62t-117 111t-75 170t-27.5 234.5q0 35 3.5 72.5t17 93.5t34.5 106t61.5 102.5t93 90.5t133.5 62t179 24q71 0 136.5 -14t136 -54.5t121.5 -104.5t84.5 -174t33.5 -253v-51
h-747q3 -26 4.5 -41t9 -46.5t17.5 -52t29.5 -47t45 -42t64 -26.5t86.5 -11q63 0 115 31t69 87zM342 653h444q-6 63 -28 109.5t-54.5 72t-67 37t-71.5 11.5q-99 0 -155 -60t-68 -170zM500 1493v-236h-258v236h258zM899 1493v-236h-258v236h258z" />
    <glyph glyph-name="iacute" unicode="&#xed;" horiz-adv-x="569" 
d="M141 1090h287v-1090h-287v1090zM674 1536l-301 -299h-207l192 299h316z" />
    <glyph glyph-name="icircumflex" unicode="&#xee;" horiz-adv-x="569" 
d="M141 1090h287v-1090h-287v1090zM414 1536l233 -299h-231l-131 168l-129 -168h-232l234 299h256z" />
    <glyph glyph-name="oacute" unicode="&#xf3;" horiz-adv-x="1251" 
d="M1184 545q0 -115 -30 -210.5t-82 -162t-122.5 -112.5t-152 -67.5t-170.5 -21.5t-170.5 21.5t-152 67.5t-122.5 112.5t-82 162t-30 210.5q0 143 45.5 254.5t123.5 180t177 103.5t211 35t211 -35t177 -103.5t123.5 -180t45.5 -254.5zM889 545q0 47 -5.5 88.5t-23 88
t-45.5 79.5t-76.5 54.5t-111.5 21.5t-111.5 -21.5t-76.5 -54.5t-45.5 -79.5t-23 -88t-5.5 -88.5t5.5 -88.5t23 -88t45.5 -79.5t76.5 -54.5t111.5 -21.5t111.5 21.5t76.5 54.5t45.5 79.5t23 88t5.5 88.5zM1014 1536l-301 -299h-207l192 299h316z" />
    <glyph glyph-name="ocircumflex" unicode="&#xf4;" horiz-adv-x="1251" 
d="M1184 545q0 -115 -30 -210.5t-82 -162t-122.5 -112.5t-152 -67.5t-170.5 -21.5t-170.5 21.5t-152 67.5t-122.5 112.5t-82 162t-30 210.5q0 143 45.5 254.5t123.5 180t177 103.5t211 35t211 -35t177 -103.5t123.5 -180t45.5 -254.5zM889 545q0 47 -5.5 88.5t-23 88
t-45.5 79.5t-76.5 54.5t-111.5 21.5t-111.5 -21.5t-76.5 -54.5t-45.5 -79.5t-23 -88t-5.5 -88.5t5.5 -88.5t23 -88t45.5 -79.5t76.5 -54.5t111.5 -21.5t111.5 21.5t76.5 54.5t45.5 79.5t23 88t5.5 88.5zM754 1536l233 -299h-231l-131 168l-129 -168h-232l234 299h256z" />
    <glyph glyph-name="otilde" unicode="&#xf5;" horiz-adv-x="1251" 
d="M1184 545q0 -115 -30 -210.5t-82 -162t-122.5 -112.5t-152 -67.5t-170.5 -21.5t-170.5 21.5t-152 67.5t-122.5 112.5t-82 162t-30 210.5q0 143 45.5 254.5t123.5 180t177 103.5t211 35t211 -35t177 -103.5t123.5 -180t45.5 -254.5zM889 545q0 47 -5.5 88.5t-23 88
t-45.5 79.5t-76.5 54.5t-111.5 21.5t-111.5 -21.5t-76.5 -54.5t-45.5 -79.5t-23 -88t-5.5 -88.5t5.5 -88.5t23 -88t45.5 -79.5t76.5 -54.5t111.5 -21.5t111.5 21.5t76.5 54.5t45.5 79.5t23 88t5.5 88.5zM868 1509h133q-4 -25 -10.5 -49.5t-23.5 -62t-39.5 -65t-62 -48
t-87.5 -20.5q-56 0 -155 32q-21 6 -56 18.5t-54.5 17.5t-35.5 5q-25 0 -44.5 -10t-29.5 -26t-15 -28t-7 -24h-131q19 99 59 156q71 96 189 96q32 0 59 -7.5t88 -31.5q91 -35 127 -35q77 0 96 82z" />
    <glyph glyph-name="odieresis" unicode="&#xf6;" horiz-adv-x="1251" 
d="M1184 545q0 -115 -30 -210.5t-82 -162t-122.5 -112.5t-152 -67.5t-170.5 -21.5t-170.5 21.5t-152 67.5t-122.5 112.5t-82 162t-30 210.5q0 143 45.5 254.5t123.5 180t177 103.5t211 35t211 -35t177 -103.5t123.5 -180t45.5 -254.5zM889 545q0 47 -5.5 88.5t-23 88
t-45.5 79.5t-76.5 54.5t-111.5 21.5t-111.5 -21.5t-76.5 -54.5t-45.5 -79.5t-23 -88t-5.5 -88.5t5.5 -88.5t23 -88t45.5 -79.5t76.5 -54.5t111.5 -21.5t111.5 21.5t76.5 54.5t45.5 79.5t23 88t5.5 88.5zM555 1493v-236h-258v236h258zM954 1493v-236h-258v236h258z" />
    <glyph glyph-name="divide" unicode="&#xf7;" horiz-adv-x="1196" 
d="M1114 403h-1032v230h1032v-230zM418 940q0 75 54 128.5t128 53.5q72 0 126 -54.5t54 -127.5q0 -68 -54 -124t-124 -56q-75 0 -129.5 53.5t-54.5 126.5zM418 94q0 75 54 128.5t128 53.5q72 0 126 -54.5t54 -127.5q0 -68 -54 -124t-124 -56q-75 0 -129.5 53.5t-54.5 126.5z
" />
    <glyph glyph-name="uacute" unicode="&#xfa;" horiz-adv-x="1251" 
d="M1116 1090v-1090h-274v154h-4q-103 -183 -332 -183q-169 0 -270 100.5t-101 301.5v717h287v-676q0 -201 186 -201q39 0 75 12t70.5 38.5t55 77.5t20.5 120v629h287zM1014 1536l-301 -299h-207l192 299h316z" />
    <glyph glyph-name="udieresis" unicode="&#xfc;" horiz-adv-x="1251" 
d="M1116 1090v-1090h-274v154h-4q-103 -183 -332 -183q-169 0 -270 100.5t-101 301.5v717h287v-676q0 -201 186 -201q39 0 75 12t70.5 38.5t55 77.5t20.5 120v629h287zM555 1493v-236h-258v236h258zM954 1493v-236h-258v236h258z" />
    <glyph glyph-name="yacute" unicode="&#xfd;" 
d="M1104 1090l-375 -1072q-28 -83 -46.5 -135.5t-41 -105t-39.5 -81.5t-41 -56.5t-46 -40t-55.5 -22.5t-68 -12.5t-84.5 -2.5q-47 0 -129 4v229q24 -4 55 -4q44 0 70.5 4.5t52 21t41 50t25.5 88.5l-402 1135h320l233 -803h5l223 803h303zM958 1536l-301 -299h-206l192 299
h315z" />
    <glyph glyph-name="Amacron" unicode="&#x100;" horiz-adv-x="1478" 
d="M467 303l-102 -303h-324l524 1470h355l518 -1470h-334l-94 303h-543zM737 1139l-188 -582h375l-183 582h-4zM1094 1769v-151h-707v151h707z" />
    <glyph glyph-name="amacron" unicode="&#x101;" 
d="M1016 803v-590q0 -89 16 -124.5t47 -45.5v-43h-309q-21 66 -27 129q-33 -34 -57.5 -54.5t-68 -48.5t-100.5 -41.5t-126 -13.5q-64 0 -121.5 18.5t-105.5 55.5t-76.5 100t-28.5 144q0 153 86.5 240t231.5 108l258 39q100 13 100 86q0 35 -13 59.5t-31 37.5t-46.5 20
t-49 8.5t-48.5 1.5q-51 0 -86.5 -14t-53 -39.5t-25 -47.5t-11.5 -51h-277q10 97 43 167.5t78 111t109.5 64.5t123.5 31t134 7q53 0 105 -6.5t113.5 -27.5t107.5 -54t77 -91.5t31 -135.5zM735 391v139q-46 -37 -194 -59q-46 -8 -76 -17t-60 -26.5t-44.5 -47.5t-14.5 -73
q0 -68 41 -99.5t92 -31.5q101 0 178.5 60t77.5 155zM924 1389v-152h-707v152h707z" />
    <glyph glyph-name="Abreve" unicode="&#x102;" horiz-adv-x="1478" 
d="M467 303l-102 -303h-324l524 1470h355l518 -1470h-334l-94 303h-543zM737 1139l-188 -582h375l-183 582h-4zM952 1917h133q-3 -34 -11 -67t-33 -77.5t-62 -76.5t-104 -55t-154 -23q-78 0 -138.5 24t-93.5 57t-55 78t-29.5 77t-9.5 63h135q4 -21 8.5 -35.5t18 -37
t33.5 -36t57 -24t86 -10.5q43 0 72 4t62.5 17t55 44t29.5 78z" />
    <glyph glyph-name="abreve" unicode="&#x103;" 
d="M1016 803v-590q0 -89 16 -124.5t47 -45.5v-43h-309q-21 66 -27 129q-33 -34 -57.5 -54.5t-68 -48.5t-100.5 -41.5t-126 -13.5q-64 0 -121.5 18.5t-105.5 55.5t-76.5 100t-28.5 144q0 153 86.5 240t231.5 108l258 39q100 13 100 86q0 35 -13 59.5t-31 37.5t-46.5 20
t-49 8.5t-48.5 1.5q-51 0 -86.5 -14t-53 -39.5t-25 -47.5t-11.5 -51h-277q10 97 43 167.5t78 111t109.5 64.5t123.5 31t134 7q53 0 105 -6.5t113.5 -27.5t107.5 -54t77 -91.5t31 -135.5zM735 391v139q-46 -37 -194 -59q-46 -8 -76 -17t-60 -26.5t-44.5 -47.5t-14.5 -73
q0 -68 41 -99.5t92 -31.5q101 0 178.5 60t77.5 155zM782 1536h133q-3 -34 -11 -67t-33 -77.5t-62 -76.5t-104 -55t-154 -23q-78 0 -138.5 24t-93.5 57t-55 78t-29.5 77t-9.5 63h135q4 -21 8.5 -35.5t18 -37t33.5 -36t57 -24t86 -10.5q43 0 72 4t62.5 17t55 44t29.5 78z" />
    <glyph glyph-name="Aogonek" unicode="&#x104;" horiz-adv-x="1478" 
d="M737 1139l-188 -582h375l-183 582h-4zM1483 -309l37 -101q-126 -49 -224 -49q-111 0 -182.5 55t-71.5 136q0 90 55 159.5t150 108.5h-143l-94 303h-543l-102 -303h-324l524 1470h355l518 -1470q-94 -50 -148.5 -122.5t-54.5 -123.5q0 -47 28.5 -72.5t65.5 -25.5
q59 0 154 35z" />
    <glyph glyph-name="aogonek" unicode="&#x105;" 
d="M735 391v139q-46 -37 -194 -59q-46 -8 -76 -17t-60 -26.5t-44.5 -47.5t-14.5 -73q0 -68 41 -99.5t92 -31.5q101 0 178.5 60t77.5 155zM1079 -309l37 -101q-73 -29 -121 -39t-102 -10q-111 0 -182.5 55t-71.5 136q0 90 60 160t161 108h-90q-21 66 -27 129
q-33 -34 -57.5 -54.5t-68 -48.5t-100.5 -41.5t-126 -13.5q-64 0 -121.5 18.5t-105.5 55.5t-76.5 100t-28.5 144q0 153 86.5 240t231.5 108l258 39q100 13 100 86q0 35 -13 59.5t-31 37.5t-46.5 20t-49 8.5t-48.5 1.5q-51 0 -86.5 -14t-53 -39.5t-25 -47.5t-11.5 -51h-277
q10 97 43 167.5t78 111t109.5 64.5t123.5 31t134 7q53 0 105 -6.5t113.5 -27.5t107.5 -54t77 -91.5t31 -135.5v-590q0 -89 16 -124.5t47 -45.5v-43q-28 0 -51 -10q-90 -44 -143.5 -114.5t-53.5 -121.5q0 -47 29 -72.5t66 -25.5q58 0 153 35z" />
    <glyph glyph-name="Cacute" unicode="&#x106;" horiz-adv-x="1478" 
d="M1401 989h-307q-8 27 -13 42.5t-18 45.5t-27.5 49.5t-40 44t-56 38.5t-75 24t-96.5 10q-48 0 -94.5 -13t-97 -48.5t-88 -91t-61.5 -149t-24 -212.5q0 -102 21 -190t63.5 -159t114.5 -112t166 -41q128 0 213 71.5t113 205.5h307q-48 -250 -210 -396.5t-429 -146.5
q-148 0 -270.5 50t-212 145t-139.5 242.5t-50 334.5q0 188 52 337.5t144 244t214 144.5t266 50q127 0 233 -33.5t176.5 -87t121 -123t75 -139t29.5 -137.5zM1128 1917l-301 -299h-206l192 299h315z" />
    <glyph glyph-name="cacute" unicode="&#x107;" 
d="M780 397h291q-2 -28 -9.5 -59.5t-24 -74t-40.5 -81.5t-63.5 -78.5t-88.5 -68t-119.5 -46.5t-152.5 -18q-85 0 -156.5 18.5t-122.5 49t-91 74t-64.5 91t-40.5 102.5t-22 105.5t-6 102.5q0 135 30 243.5t92 190t163.5 126t236.5 44.5q57 0 114 -10.5t121.5 -39.5
t114.5 -73.5t86.5 -121t44.5 -173.5h-291q-5 31 -16.5 59.5t-32.5 58t-57.5 46t-83.5 13.5q-52 0 -92.5 -20t-65.5 -52t-41 -75t-22 -84t-6 -85q0 -34 0.5 -57.5t5 -64t13 -68.5t24.5 -61.5t39 -54t58.5 -34.5t80.5 -14q51 0 91 22t61 54.5t31.5 62t10.5 51.5zM958 1536
l-301 -299h-206l192 299h315z" />
    <glyph glyph-name="Ccaron" unicode="&#x10c;" horiz-adv-x="1478" 
d="M1401 989h-307q-8 27 -13 42.5t-18 45.5t-27.5 49.5t-40 44t-56 38.5t-75 24t-96.5 10q-48 0 -94.5 -13t-97 -48.5t-88 -91t-61.5 -149t-24 -212.5q0 -102 21 -190t63.5 -159t114.5 -112t166 -41q128 0 213 71.5t113 205.5h307q-48 -250 -210 -396.5t-429 -146.5
q-148 0 -270.5 50t-212 145t-139.5 242.5t-50 334.5q0 188 52 337.5t144 244t214 144.5t266 50q127 0 233 -33.5t176.5 -87t121 -123t75 -139t29.5 -137.5zM1102 1917l-234 -299h-256l-233 299h231l129 -168l131 168h232z" />
    <glyph glyph-name="ccaron" unicode="&#x10d;" 
d="M780 397h291q-2 -28 -9.5 -59.5t-24 -74t-40.5 -81.5t-63.5 -78.5t-88.5 -68t-119.5 -46.5t-152.5 -18q-85 0 -156.5 18.5t-122.5 49t-91 74t-64.5 91t-40.5 102.5t-22 105.5t-6 102.5q0 135 30 243.5t92 190t163.5 126t236.5 44.5q57 0 114 -10.5t121.5 -39.5
t114.5 -73.5t86.5 -121t44.5 -173.5h-291q-5 31 -16.5 59.5t-32.5 58t-57.5 46t-83.5 13.5q-52 0 -92.5 -20t-65.5 -52t-41 -75t-22 -84t-6 -85q0 -34 0.5 -57.5t5 -64t13 -68.5t24.5 -61.5t39 -54t58.5 -34.5t80.5 -14q51 0 91 22t61 54.5t31.5 62t10.5 51.5zM932 1536
l-234 -299h-256l-233 299h231l129 -168l131 168h232z" />
    <glyph glyph-name="Dcaron" unicode="&#x10e;" horiz-adv-x="1478" 
d="M156 0v1470h649q103 0 189 -24.5t146.5 -65t107.5 -98.5t76 -119.5t47 -132t25 -133.5t7 -127q0 -71 -8 -142t-28 -148t-51 -145.5t-79.5 -130.5t-110 -106.5t-147 -71t-186.5 -26.5h-637zM457 1217v-963h299q90 0 157 42.5t104.5 115t55 156.5t17.5 180q0 90 -12 162.5
t-31.5 120.5t-48.5 83.5t-57.5 54.5t-64.5 30.5t-63.5 14.5t-60.5 3h-295zM1102 1917l-234 -299h-256l-233 299h231l129 -168l131 168h232z" />
    <glyph glyph-name="dcaron" unicode="&#x10f;" horiz-adv-x="1521" 
d="M1536 1470v-231q0 -83 -20 -144.5t-59 -101.5t-86 -63.5t-109 -38.5h-2v98q33 12 53.5 23t45.5 33.5t38.5 61.5t17.5 95h-155v268h276zM1128 1470v-1470h-280v137h-4q-49 -86 -133.5 -126t-182.5 -40q-94 0 -171.5 32.5t-130 87.5t-88.5 130.5t-52 159.5t-16 176
q0 137 36.5 246t99.5 176.5t143.5 103t172.5 35.5q207 0 316 -170h4v522h286zM365 537q0 -54 11.5 -107t36.5 -105.5t73.5 -85t113.5 -32.5q87 0 146 45.5t83.5 114t24.5 153.5q0 71 -11.5 129t-37.5 110t-76 81.5t-121 29.5q-66 0 -114.5 -27.5t-75.5 -75.5t-40 -105
t-13 -125z" />
    <glyph glyph-name="Dcroat" unicode="&#x110;" horiz-adv-x="1478" 
d="M156 647h-166v254h166v569h649q103 0 189 -24.5t146.5 -65t107.5 -98.5t76 -119.5t47 -132t25 -133.5t7 -127q0 -71 -8 -142t-28 -148t-51 -145.5t-79.5 -130.5t-110 -106.5t-147 -71t-186.5 -26.5h-637v647zM457 1217v-316h340v-254h-340v-393h299q90 0 157 42.5
t104.5 115t55 156.5t17.5 180q0 90 -12 162.5t-31.5 120.5t-48.5 83.5t-57.5 54.5t-64.5 30.5t-63.5 14.5t-60.5 3h-295z" />
    <glyph glyph-name="dcroat" unicode="&#x111;" horiz-adv-x="1251" 
d="M365 537q0 -54 11.5 -107t36.5 -105.5t73.5 -85t113.5 -32.5q87 0 146 45.5t83.5 114t24.5 153.5q0 71 -11.5 129t-37.5 110t-76 81.5t-121 29.5q-66 0 -114.5 -27.5t-75.5 -75.5t-40 -105t-13 -125zM1331 1335v-147h-203v-1188h-280v137h-4q-49 -86 -133.5 -126
t-182.5 -40q-94 0 -171.5 32.5t-130 87.5t-88.5 130.5t-52 159.5t-16 176q0 137 36.5 246t99.5 176.5t143.5 103t172.5 35.5q207 0 316 -170h4v240h-330v147h330v135h286v-135h203z" />
    <glyph glyph-name="Emacron" unicode="&#x112;" horiz-adv-x="1366" 
d="M1237 1470v-260h-780v-309h717v-260h-717v-381h815v-260h-1116v1470h1081zM1036 1769v-151h-706v151h706z" />
    <glyph glyph-name="emacron" unicode="&#x113;" 
d="M774 319h295q-27 -94 -79.5 -164t-119.5 -109t-136.5 -57t-143.5 -18q-95 0 -174.5 18.5t-149 62t-117 111t-75 170t-27.5 234.5q0 35 3.5 72.5t17 93.5t34.5 106t61.5 102.5t93 90.5t133.5 62t179 24q71 0 136.5 -14t136 -54.5t121.5 -104.5t84.5 -174t33.5 -253v-51
h-747q3 -26 4.5 -41t9 -46.5t17.5 -52t29.5 -47t45 -42t64 -26.5t86.5 -11q63 0 115 31t69 87zM342 653h444q-6 63 -28 109.5t-54.5 72t-67 37t-71.5 11.5q-99 0 -155 -60t-68 -170zM924 1389v-152h-707v152h707z" />
    <glyph glyph-name="Edotaccent" unicode="&#x116;" horiz-adv-x="1366" 
d="M1237 1470v-260h-780v-309h717v-260h-717v-381h815v-260h-1116v1470h1081zM813 1874v-236h-258v236h258z" />
    <glyph glyph-name="edotaccent" unicode="&#x117;" 
d="M774 319h295q-27 -94 -79.5 -164t-119.5 -109t-136.5 -57t-143.5 -18q-95 0 -174.5 18.5t-149 62t-117 111t-75 170t-27.5 234.5q0 35 3.5 72.5t17 93.5t34.5 106t61.5 102.5t93 90.5t133.5 62t179 24q71 0 136.5 -14t136 -54.5t121.5 -104.5t84.5 -174t33.5 -253v-51
h-747q3 -26 4.5 -41t9 -46.5t17.5 -52t29.5 -47t45 -42t64 -26.5t86.5 -11q63 0 115 31t69 87zM342 653h444q-6 63 -28 109.5t-54.5 72t-67 37t-71.5 11.5q-99 0 -155 -60t-68 -170zM700 1493v-236h-258v236h258z" />
    <glyph glyph-name="Eogonek" unicode="&#x118;" horiz-adv-x="1366" 
d="M1272 -309l37 -101q-126 -49 -224 -49q-111 0 -182.5 55t-71.5 136q0 90 55 160t150 108h-880v1470h1081v-260h-780v-309h717v-260h-717v-381h815v-260q-29 0 -47 -8q-92 -44 -146.5 -115t-54.5 -123q0 -47 28.5 -72.5t65.5 -25.5q59 0 154 35z" />
    <glyph glyph-name="eogonek" unicode="&#x119;" 
d="M774 319h295q-28 -97 -95 -179.5t-136 -131.5q-87 -62 -139 -137.5t-52 -124.5q0 -47 28.5 -72.5t65.5 -25.5q59 0 154 35l37 -101q-73 -29 -121 -39t-102 -10q-111 0 -182.5 55t-71.5 136t43.5 144.5t119.5 104.5q-8 -2 -28 -2q-95 0 -174.5 18.5t-149 62t-117 111
t-75 170t-27.5 234.5q0 35 3.5 72.5t17 93.5t34.5 106t61.5 102.5t93 90.5t133.5 62t179 24q71 0 136.5 -14t136 -54.5t121.5 -104.5t84.5 -174t33.5 -253v-51h-747q3 -26 4.5 -41t9 -46.5t17.5 -52t29.5 -47t45 -42t64 -26.5t86.5 -11q63 0 115 31t69 87zM342 653h444
q-6 63 -28 109.5t-54.5 72t-67 37t-71.5 11.5q-99 0 -155 -60t-68 -170z" />
    <glyph glyph-name="Ecaron" unicode="&#x11a;" horiz-adv-x="1366" 
d="M1237 1470v-260h-780v-309h717v-260h-717v-381h815v-260h-1116v1470h1081zM1044 1917l-233 -299h-256l-233 299h231l129 -168l131 168h231z" />
    <glyph glyph-name="ecaron" unicode="&#x11b;" 
d="M774 319h295q-27 -94 -79.5 -164t-119.5 -109t-136.5 -57t-143.5 -18q-95 0 -174.5 18.5t-149 62t-117 111t-75 170t-27.5 234.5q0 35 3.5 72.5t17 93.5t34.5 106t61.5 102.5t93 90.5t133.5 62t179 24q71 0 136.5 -14t136 -54.5t121.5 -104.5t84.5 -174t33.5 -253v-51
h-747q3 -26 4.5 -41t9 -46.5t17.5 -52t29.5 -47t45 -42t64 -26.5t86.5 -11q63 0 115 31t69 87zM342 653h444q-6 63 -28 109.5t-54.5 72t-67 37t-71.5 11.5q-99 0 -155 -60t-68 -170zM932 1536l-234 -299h-256l-233 299h231l129 -168l131 168h232z" />
    <glyph glyph-name="Gcommaaccent" unicode="&#x122;" horiz-adv-x="1593" 
d="M846 545v248h614v-793h-205l-30 184q-33 -39 -52.5 -59.5t-64.5 -56.5t-88 -55.5t-110 -35.5t-144 -16q-107 0 -206 30t-185 93t-149 152.5t-99.5 216.5t-36.5 278q0 123 26.5 235.5t84 212t140.5 173t203 116t265 41.5q109 0 203 -22.5t161.5 -61t120.5 -87.5t86 -105.5
t51.5 -111t22.5 -107.5h-307q0 18 -12 47t-39 62.5t-63.5 63t-91 49t-116.5 19.5q-85 0 -159 -30.5t-134 -91.5t-94.5 -165.5t-34.5 -240.5q0 -116 25 -206t65 -145.5t97 -91.5t115.5 -49.5t125.5 -13.5q27 0 57.5 4.5t78.5 24.5t88 52.5t77.5 95.5t55.5 147h-342zM948 -102
v-168q0 -80 -77 -132.5t-199 -64.5v82q32 5 53 10.5t45 15.5t36 26t13 38h-147v193h276z" />
    <glyph glyph-name="gcommaaccent" unicode="&#x123;" horiz-adv-x="1251" 
d="M715 1473v-236h-258v188q0 67 17 120t41.5 85.5t60.5 56.5t66.5 35t66.5 19v-94q-57 -18 -88.5 -48t-39.5 -57t-10 -69h144zM858 1090h275v-1033q0 -39 -1 -67t-6.5 -71.5t-15.5 -75.5t-30 -72t-47 -68.5t-69.5 -58t-95.5 -47.5t-126 -29.5t-160 -11.5q-69 0 -134.5 11.5
t-126.5 37.5t-107 63t-75.5 92.5t-32.5 122.5h312q6 -25 14 -41t27.5 -34t59.5 -26.5t99 -8.5q117 0 172.5 59.5t55.5 190.5v131l-4 4q-42 -76 -108 -120t-183 -44q-100 0 -184 35t-148.5 103t-100.5 177t-36 248q0 137 37 246t100 176.5t143.5 103t172.5 35.5
q227 0 319 -190h4v162zM377 539q0 -44 7 -85t24 -81.5t42.5 -70t65 -48t88.5 -18.5q70 0 120 27.5t75.5 75t37 99.5t11.5 113q0 138 -65 228.5t-181 90.5q-43 0 -80.5 -16.5t-71 -53t-53.5 -103.5t-20 -158z" />
    <glyph glyph-name="Imacron" unicode="&#x12a;" horiz-adv-x="569" 
d="M438 1470v-1470h-307v1470h307zM639 1769v-151h-707v151h707z" />
    <glyph glyph-name="imacron" unicode="&#x12b;" horiz-adv-x="569" 
d="M141 1090h287v-1090h-287v1090zM584 1389v-152h-600v152h600z" />
    <glyph glyph-name="Iogonek" unicode="&#x12e;" horiz-adv-x="569" 
d="M418 -317l37 -101q-126 -49 -224 -49q-111 0 -182.5 55t-71.5 136q0 85 53.5 157t166.5 119h-66v1470h307v-1470h-65q-94 -56 -148.5 -129.5t-54.5 -124.5q0 -47 28.5 -72.5t65.5 -25.5q59 0 154 35z" />
    <glyph glyph-name="iogonek" unicode="&#x12f;" horiz-adv-x="569" 
d="M428 1485v-266h-287v266h287zM473 -309l37 -101q-73 -29 -121 -39t-102 -10q-111 0 -182.5 55t-71.5 136q0 90 60 160t161 108h-113v1090h287v-1090q-94 -50 -148.5 -122.5t-54.5 -123.5q0 -47 28.5 -72.5t65.5 -25.5q59 0 154 35z" />
    <glyph glyph-name="Kcommaaccent" unicode="&#x136;" horiz-adv-x="1478" 
d="M485 498v-498h-307v1470h307v-598l562 598h397l-600 -602l635 -868h-396l-454 645zM891 -102v-168q0 -80 -77.5 -132.5t-199.5 -64.5v82q32 6 53.5 11t45 15t36 26t13.5 38h-148v193h277z" />
    <glyph glyph-name="kcommaaccent" unicode="&#x137;" 
d="M428 344v-344h-287v1470h287v-794l360 414h353l-385 -422l395 -668h-344l-260 467zM721 -102v-168q0 -80 -77.5 -132.5t-199.5 -64.5v82q32 6 53.5 11t45 15t36 26t13.5 38h-148v193h277z" />
    <glyph glyph-name="Lacute" unicode="&#x139;" horiz-adv-x="1251" 
d="M463 1470v-1204h731v-266h-1038v1470h307zM698 1917l-301 -299h-207l193 299h315z" />
    <glyph glyph-name="lacute" unicode="&#x13a;" horiz-adv-x="569" 
d="M428 1470v-1470h-287v1470h287zM674 1917l-301 -299h-207l192 299h316z" />
    <glyph glyph-name="Lcommaaccent" unicode="&#x13b;" horiz-adv-x="1251" 
d="M463 1470v-1204h731v-266h-1038v1470h307zM778 -102v-168q0 -80 -77 -132.5t-199 -64.5v82q32 5 53 10.5t45 15.5t36 26t13 38h-147v193h276z" />
    <glyph glyph-name="lcommaaccent" unicode="&#x13c;" horiz-adv-x="569" 
d="M428 1470v-1470h-287v1470h287zM436 -102v-168q0 -80 -77 -132.5t-199 -64.5v82q32 5 53 10.5t45 15.5t36 26t13 38h-147v193h276z" />
    <glyph glyph-name="Lcaron" unicode="&#x13d;" horiz-adv-x="1251" 
d="M463 1470v-1204h731v-266h-1038v1470h307zM1004 1470v-231q0 -82 -20.5 -144t-59.5 -102t-85.5 -63.5t-109.5 -38.5h-2v98q26 9 42.5 16.5t39 24t36 37.5t24.5 55.5t14 79.5h-156v268h277z" />
    <glyph glyph-name="lcaron" unicode="&#x13e;" horiz-adv-x="819" 
d="M428 1470v-1470h-287v1470h287zM836 1470v-231q0 -82 -20.5 -144t-59.5 -102t-85.5 -63.5t-109.5 -38.5h-2v98q26 9 42.5 16.5t39 24t36 37.5t24.5 55.5t14 79.5h-156v268h277z" />
    <glyph glyph-name="Lslash" unicode="&#x141;" horiz-adv-x="1251" 
d="M725 940l-262 -149v-525h731v-266h-1038v637l-197 -113v160l197 113v673h307v-520l262 150v-160z" />
    <glyph glyph-name="lslash" unicode="&#x142;" horiz-adv-x="569" 
d="M606 1071v-160l-178 -102v-809h-287v664l-178 -103v160l178 102v647h287v-501z" />
    <glyph glyph-name="Nacute" unicode="&#x143;" horiz-adv-x="1478" 
d="M1053 446v1024h286v-1470h-307l-600 1049h-4v-1049h-287v1470h324l584 -1024h4zM1128 1917l-301 -299h-206l192 299h315z" />
    <glyph glyph-name="nacute" unicode="&#x144;" horiz-adv-x="1251" 
d="M1118 754v-754h-287v662q0 27 -1.5 44.5t-6.5 46t-17 47.5t-31.5 38.5t-52.5 29t-77 9.5q-99 0 -162 -66t-63 -186v-625h-287v1090h275v-160h4q15 26 29 45.5t43 48.5t61.5 47.5t83.5 32.5t110 14q167 0 273 -95t106 -269zM1014 1536l-301 -299h-207l192 299h316z" />
    <glyph glyph-name="Ncommaaccent" unicode="&#x145;" horiz-adv-x="1478" 
d="M1053 446v1024h286v-1470h-307l-600 1049h-4v-1049h-287v1470h324l584 -1024h4zM891 -102v-168q0 -80 -77.5 -132.5t-199.5 -64.5v82q32 6 53.5 11t45 15t36 26t13.5 38h-148v193h277z" />
    <glyph glyph-name="ncommaaccent" unicode="&#x146;" horiz-adv-x="1251" 
d="M1118 754v-754h-287v662q0 27 -1.5 44.5t-6.5 46t-17 47.5t-31.5 38.5t-52.5 29t-77 9.5q-99 0 -162 -66t-63 -186v-625h-287v1090h275v-160h4q15 26 29 45.5t43 48.5t61.5 47.5t83.5 32.5t110 14q167 0 273 -95t106 -269zM778 -102v-168q0 -80 -77 -132.5t-199 -64.5v82
q32 5 53 10.5t45 15.5t36 26t13 38h-147v193h276z" />
    <glyph glyph-name="Ncaron" unicode="&#x147;" horiz-adv-x="1478" 
d="M1053 446v1024h286v-1470h-307l-600 1049h-4v-1049h-287v1470h324l584 -1024h4zM1102 1917l-234 -299h-256l-233 299h231l129 -168l131 168h232z" />
    <glyph glyph-name="ncaron" unicode="&#x148;" horiz-adv-x="1251" 
d="M1118 754v-754h-287v662q0 27 -1.5 44.5t-6.5 46t-17 47.5t-31.5 38.5t-52.5 29t-77 9.5q-99 0 -162 -66t-63 -186v-625h-287v1090h275v-160h4q15 26 29 45.5t43 48.5t61.5 47.5t83.5 32.5t110 14q167 0 273 -95t106 -269zM987 1536l-233 -299h-256l-234 299h232
l129 -168l131 168h231z" />
    <glyph glyph-name="Omacron" unicode="&#x14c;" horiz-adv-x="1593" 
d="M90 735q0 142 29.5 259.5t76 196t111.5 138.5t129 93t136 53.5t124 27t101 6.5t101 -6.5t123.5 -27t135.5 -53.5t129 -93t111.5 -138.5t76 -196t29.5 -259.5t-29.5 -259.5t-76 -196t-111.5 -138.5t-129 -93t-135.5 -53.5t-123.5 -27t-101 -6.5t-101 6.5t-124 27
t-136 53.5t-129 93t-111.5 138.5t-76 196t-29.5 259.5zM397 735q0 -118 26 -211t66.5 -148.5t95.5 -91.5t106.5 -49.5t105.5 -13.5t105.5 13.5t106 49.5t95 91.5t66.5 148.5t26 211t-26 211t-66.5 148.5t-95 91.5t-106 49.5t-105.5 13.5t-105.5 -13.5t-106.5 -49.5
t-95.5 -91.5t-66.5 -148.5t-26 -211zM1151 1769v-151h-707v151h707z" />
    <glyph glyph-name="omacron" unicode="&#x14d;" horiz-adv-x="1251" 
d="M1184 545q0 -115 -30 -210.5t-82 -162t-122.5 -112.5t-152 -67.5t-170.5 -21.5t-170.5 21.5t-152 67.5t-122.5 112.5t-82 162t-30 210.5q0 143 45.5 254.5t123.5 180t177 103.5t211 35t211 -35t177 -103.5t123.5 -180t45.5 -254.5zM889 545q0 47 -5.5 88.5t-23 88
t-45.5 79.5t-76.5 54.5t-111.5 21.5t-111.5 -21.5t-76.5 -54.5t-45.5 -79.5t-23 -88t-5.5 -88.5t5.5 -88.5t23 -88t45.5 -79.5t76.5 -54.5t111.5 -21.5t111.5 21.5t76.5 54.5t45.5 79.5t23 88t5.5 88.5zM979 1389v-152h-707v152h707z" />
    <glyph glyph-name="Ohungarumlaut" unicode="&#x150;" horiz-adv-x="1593" 
d="M90 735q0 142 29.5 259.5t76 196t111.5 138.5t129 93t136 53.5t124 27t101 6.5t101 -6.5t123.5 -27t135.5 -53.5t129 -93t111.5 -138.5t76 -196t29.5 -259.5t-29.5 -259.5t-76 -196t-111.5 -138.5t-129 -93t-135.5 -53.5t-123.5 -27t-101 -6.5t-101 6.5t-124 27
t-136 53.5t-129 93t-111.5 138.5t-76 196t-29.5 259.5zM397 735q0 -118 26 -211t66.5 -148.5t95.5 -91.5t106.5 -49.5t105.5 -13.5t105.5 13.5t106 49.5t95 91.5t66.5 148.5t26 211t-26 211t-66.5 148.5t-95 91.5t-106 49.5t-105.5 13.5t-105.5 -13.5t-106.5 -49.5
t-95.5 -91.5t-66.5 -148.5t-26 -211zM983 1917l-301 -299h-207l193 299h315zM1452 1917l-301 -299h-207l193 299h315z" />
    <glyph glyph-name="ohungarumlaut" unicode="&#x151;" horiz-adv-x="1251" 
d="M1184 545q0 -115 -30 -210.5t-82 -162t-122.5 -112.5t-152 -67.5t-170.5 -21.5t-170.5 21.5t-152 67.5t-122.5 112.5t-82 162t-30 210.5q0 143 45.5 254.5t123.5 180t177 103.5t211 35t211 -35t177 -103.5t123.5 -180t45.5 -254.5zM889 545q0 47 -5.5 88.5t-23 88
t-45.5 79.5t-76.5 54.5t-111.5 21.5t-111.5 -21.5t-76.5 -54.5t-45.5 -79.5t-23 -88t-5.5 -88.5t5.5 -88.5t23 -88t45.5 -79.5t76.5 -54.5t111.5 -21.5t111.5 21.5t76.5 54.5t45.5 79.5t23 88t5.5 88.5zM811 1536l-301 -299h-207l193 299h315zM1280 1536l-301 -299h-207
l193 299h315z" />
    <glyph glyph-name="Racute" unicode="&#x154;" horiz-adv-x="1478" 
d="M156 0v1470h743q111 0 197.5 -31.5t135 -77.5t79.5 -105.5t41 -108t10 -92.5q0 -124 -60 -219t-167 -131q42 -18 66.5 -33t50.5 -42t39 -64t21.5 -95t8.5 -139q0 -176 9 -225.5t56 -67.5v-39h-339q-33 116 -33 297q0 49 -1.5 79t-6.5 63.5t-15 52t-27 37t-43 27t-62 14
t-85 5.5h-317v-575h-301zM457 823h360q122 0 180 47t58 154q0 34 -9 64t-30.5 61t-66.5 49.5t-109 18.5h-383v-394zM1128 1917l-301 -299h-206l192 299h315z" />
    <glyph glyph-name="racute" unicode="&#x155;" horiz-adv-x="796" 
d="M131 0v1090h275v-189h4q21 40 37 66t43 57.5t55.5 50t71 31t92.5 12.5q19 0 55 -4v-291q-25 4 -82 4q-264 0 -264 -260v-567h-287zM786 1536l-301 -299h-206l192 299h315z" />
    <glyph glyph-name="Rcommaaccent" unicode="&#x156;" horiz-adv-x="1478" 
d="M156 0v1470h743q111 0 197.5 -31.5t135 -77.5t79.5 -105.5t41 -108t10 -92.5q0 -124 -60 -219t-167 -131q42 -18 66.5 -33t50.5 -42t39 -64t21.5 -95t8.5 -139q0 -176 9 -225.5t56 -67.5v-39h-339q-33 116 -33 297q0 49 -1.5 79t-6.5 63.5t-15 52t-27 37t-43 27t-62 14
t-85 5.5h-317v-575h-301zM457 823h360q122 0 180 47t58 154q0 34 -9 64t-30.5 61t-66.5 49.5t-109 18.5h-383v-394zM891 -102v-168q0 -80 -77.5 -132.5t-199.5 -64.5v82q32 6 53.5 11t45 15t36 26t13.5 38h-148v193h277z" />
    <glyph glyph-name="rcommaaccent" unicode="&#x157;" horiz-adv-x="796" 
d="M131 0v1090h275v-189h4q21 40 37 66t43 57.5t55.5 50t71 31t92.5 12.5q19 0 55 -4v-291q-25 4 -82 4q-264 0 -264 -260v-567h-287zM428 -102v-168q0 -80 -77 -132.5t-199 -64.5v82q32 5 53 10.5t45 15.5t36 26t13 38h-147v193h276z" />
    <glyph glyph-name="Rcaron" unicode="&#x158;" horiz-adv-x="1478" 
d="M156 0v1470h743q111 0 197.5 -31.5t135 -77.5t79.5 -105.5t41 -108t10 -92.5q0 -124 -60 -219t-167 -131q42 -18 66.5 -33t50.5 -42t39 -64t21.5 -95t8.5 -139q0 -176 9 -225.5t56 -67.5v-39h-339q-33 116 -33 297q0 49 -1.5 79t-6.5 63.5t-15 52t-27 37t-43 27t-62 14
t-85 5.5h-317v-575h-301zM457 823h360q122 0 180 47t58 154q0 34 -9 64t-30.5 61t-66.5 49.5t-109 18.5h-383v-394zM1102 1917l-234 -299h-256l-233 299h231l129 -168l131 168h232z" />
    <glyph glyph-name="rcaron" unicode="&#x159;" horiz-adv-x="796" 
d="M131 0v1090h275v-189h4q21 40 37 66t43 57.5t55.5 50t71 31t92.5 12.5q19 0 55 -4v-291q-25 4 -82 4q-264 0 -264 -260v-567h-287zM760 1536l-234 -299h-256l-233 299h231l129 -168l131 168h232z" />
    <glyph glyph-name="Sacute" unicode="&#x15a;" horiz-adv-x="1366" 
d="M80 453h295q1 -29 7 -56.5t26.5 -62t52.5 -59.5t90.5 -42.5t134.5 -17.5q47 0 88 4.5t82.5 18t70.5 34t47.5 55t18.5 79.5q0 34 -14 60t-33.5 43t-58.5 32.5t-71 24t-89 22.5l-158 37q-68 16 -102.5 24.5t-93 28t-89.5 38.5t-71.5 52t-61 71.5t-35 94t-14.5 123.5
q0 56 12.5 110.5t50 118.5t97.5 111.5t165 79.5t241 32q129 0 232 -32.5t165 -82.5t103 -115.5t56.5 -125.5t16.5 -119h-295q-3 28 -8 49t-24.5 56t-49 58t-86.5 40.5t-133 17.5q-64 0 -119 -15.5t-96 -56.5t-41 -104q0 -41 14.5 -70t42 -45t48 -23.5t51.5 -14.5l358 -88
q67 -16 118 -34.5t103.5 -50t86.5 -72t55.5 -101.5t21.5 -138q0 -91 -26 -165.5t-66 -123.5t-96 -86t-108.5 -56.5t-111.5 -31.5t-97.5 -15t-73.5 -3q-111 0 -203.5 18t-156.5 47.5t-113 71t-78 85t-47 93.5t-24.5 92t-6.5 85zM1071 1917l-301 -299h-207l193 299h315z" />
    <glyph glyph-name="sacute" unicode="&#x15b;" 
d="M1030 758h-280q-5 32 -13.5 53t-28 44t-57.5 34.5t-94 11.5q-104 0 -140 -30t-36 -76q0 -30 29.5 -52t77.5 -34t109 -26t125 -26.5t125 -37.5t109 -57.5t77.5 -88t29.5 -127.5q0 -91 -34 -160.5t-84.5 -109t-118 -64.5t-125 -33t-115.5 -8q-100 0 -187 19t-164.5 60
t-124 117.5t-49.5 180.5h295q0 -160 238 -160q98 0 140 36t42 77q0 36 -37.5 60.5t-97 38t-131.5 27t-144 35.5t-131.5 55t-97 93.5t-37.5 143.5q0 51 13 99.5t45 97.5t80.5 85.5t126.5 59t176 22.5q462 0 489 -360zM958 1536l-301 -299h-206l192 299h315z" />
    <glyph glyph-name="Scaron" unicode="&#x160;" horiz-adv-x="1366" 
d="M80 453h295q1 -29 7 -56.5t26.5 -62t52.5 -59.5t90.5 -42.5t134.5 -17.5q47 0 88 4.5t82.5 18t70.5 34t47.5 55t18.5 79.5q0 34 -14 60t-33.5 43t-58.5 32.5t-71 24t-89 22.5l-158 37q-68 16 -102.5 24.5t-93 28t-89.5 38.5t-71.5 52t-61 71.5t-35 94t-14.5 123.5
q0 56 12.5 110.5t50 118.5t97.5 111.5t165 79.5t241 32q129 0 232 -32.5t165 -82.5t103 -115.5t56.5 -125.5t16.5 -119h-295q-3 28 -8 49t-24.5 56t-49 58t-86.5 40.5t-133 17.5q-64 0 -119 -15.5t-96 -56.5t-41 -104q0 -41 14.5 -70t42 -45t48 -23.5t51.5 -14.5l358 -88
q67 -16 118 -34.5t103.5 -50t86.5 -72t55.5 -101.5t21.5 -138q0 -91 -26 -165.5t-66 -123.5t-96 -86t-108.5 -56.5t-111.5 -31.5t-97.5 -15t-73.5 -3q-111 0 -203.5 18t-156.5 47.5t-113 71t-78 85t-47 93.5t-24.5 92t-6.5 85zM1044 1917l-233 -299h-256l-233 299h231
l129 -168l131 168h231z" />
    <glyph glyph-name="scaron" unicode="&#x161;" 
d="M1030 758h-280q-5 32 -13.5 53t-28 44t-57.5 34.5t-94 11.5q-104 0 -140 -30t-36 -76q0 -30 29.5 -52t77.5 -34t109 -26t125 -26.5t125 -37.5t109 -57.5t77.5 -88t29.5 -127.5q0 -91 -34 -160.5t-84.5 -109t-118 -64.5t-125 -33t-115.5 -8q-100 0 -187 19t-164.5 60
t-124 117.5t-49.5 180.5h295q0 -160 238 -160q98 0 140 36t42 77q0 36 -37.5 60.5t-97 38t-131.5 27t-144 35.5t-131.5 55t-97 93.5t-37.5 143.5q0 51 13 99.5t45 97.5t80.5 85.5t126.5 59t176 22.5q462 0 489 -360zM932 1536l-234 -299h-256l-233 299h231l129 -168l131 168
h232z" />
    <glyph glyph-name="Tcommaaccent" unicode="&#x162;" horiz-adv-x="1251" 
d="M780 1210v-1210h-307v1210h-444v260h1196v-260h-445zM778 -102v-168q0 -80 -77 -132.5t-199 -64.5v82q32 5 53 10.5t45 15.5t36 26t13 38h-147v193h276z" />
    <glyph glyph-name="Tcommaaccent" unicode="&#x21a;" horiz-adv-x="1251" 
d="M780 1210v-1210h-307v1210h-444v260h1196v-260h-445zM778 -102v-168q0 -80 -77 -132.5t-199 -64.5v82q32 5 53 10.5t45 15.5t36 26t13 38h-147v193h276z" />
    <glyph glyph-name="tcommaaccent" unicode="&#x163;" horiz-adv-x="681" 
d="M455 1384v-294h178v-205h-178v-592q0 -29 2 -41.5t13 -25.5t35.5 -17t67.5 -4q20 0 60 4v-217q-90 -4 -135 -4h-37q-90 0 -150 16t-90 49.5t-41.5 72.5t-11.5 97v662h-148v205h148v294h287zM494 -102v-168q0 -80 -77.5 -132.5t-199.5 -64.5v82q32 6 53.5 11t45 15t36 26
t13.5 38h-148v193h277z" />
    <glyph glyph-name="tcommaaccent" unicode="&#x21b;" horiz-adv-x="681" 
d="M455 1384v-294h178v-205h-178v-592q0 -29 2 -41.5t13 -25.5t35.5 -17t67.5 -4q20 0 60 4v-217q-90 -4 -135 -4h-37q-90 0 -150 16t-90 49.5t-41.5 72.5t-11.5 97v662h-148v205h148v294h287zM494 -102v-168q0 -80 -77.5 -132.5t-199.5 -64.5v82q32 6 53.5 11t45 15t36 26
t13.5 38h-148v193h277z" />
    <glyph glyph-name="Tcaron" unicode="&#x164;" horiz-adv-x="1251" 
d="M780 1210v-1210h-307v1210h-444v260h1196v-260h-445zM987 1917l-233 -299h-256l-234 299h232l129 -168l131 168h231z" />
    <glyph glyph-name="tcaron" unicode="&#x165;" horiz-adv-x="796" 
d="M455 1384v-294h178v-205h-178v-592q0 -29 2 -41.5t13 -25.5t35.5 -17t67.5 -4q20 0 60 4v-217q-90 -4 -135 -4h-37q-90 0 -150 16t-90 49.5t-41.5 72.5t-11.5 97v662h-148v205h148v294h287zM862 1798v-231q0 -83 -20 -144.5t-59 -101.5t-86 -63.5t-109 -38.5h-2v98
q33 12 53.5 23t45.5 33.5t38.5 61.5t17.5 95h-155v268h276z" />
    <glyph glyph-name="Umacron" unicode="&#x16a;" horiz-adv-x="1478" 
d="M1333 1470v-956q0 -282 -158 -417.5t-446 -135.5q-125 0 -251.5 40t-215.5 138q-109 122 -115 357v974h314v-954q0 -146 73.5 -220.5t188.5 -74.5q154 0 225.5 71.5t71.5 209.5v968h313zM1094 1769v-151h-707v151h707z" />
    <glyph glyph-name="umacron" unicode="&#x16b;" horiz-adv-x="1251" 
d="M1116 1090v-1090h-274v154h-4q-103 -183 -332 -183q-169 0 -270 100.5t-101 301.5v717h287v-676q0 -201 186 -201q39 0 75 12t70.5 38.5t55 77.5t20.5 120v629h287zM979 1389v-152h-707v152h707z" />
    <glyph glyph-name="Uring" unicode="&#x16e;" horiz-adv-x="1478" 
d="M1333 1470v-956q0 -282 -158 -417.5t-446 -135.5q-125 0 -251.5 40t-215.5 138q-109 122 -115 357v974h314v-954q0 -146 73.5 -220.5t188.5 -74.5q154 0 225.5 71.5t71.5 209.5v968h313zM963 1757q0 -92 -70 -152.5t-152 -60.5t-151.5 60.5t-69.5 152.5t69.5 152.5
t151.5 60.5t152 -60.5t70 -152.5zM848 1757q0 44 -31.5 75.5t-75.5 31.5t-75 -31.5t-31 -75.5t31 -75t75 -31t75.5 31t31.5 75z" />
    <glyph glyph-name="uring" unicode="&#x16f;" horiz-adv-x="1251" 
d="M1116 1090v-1090h-274v154h-4q-103 -183 -332 -183q-169 0 -270 100.5t-101 301.5v717h287v-676q0 -201 186 -201q39 0 75 12t70.5 38.5t55 77.5t20.5 120v629h287zM848 1376q0 -92 -69.5 -152.5t-151.5 -60.5t-151.5 60.5t-69.5 152.5t69.5 152.5t151.5 60.5
t151.5 -60.5t69.5 -152.5zM733 1376q0 44 -31 75.5t-75 31.5t-75.5 -31.5t-31.5 -75.5t31.5 -75t75.5 -31t75 31t31 75z" />
    <glyph glyph-name="Uhungarumlaut" unicode="&#x170;" horiz-adv-x="1478" 
d="M1333 1470v-956q0 -282 -158 -417.5t-446 -135.5q-125 0 -251.5 40t-215.5 138q-109 122 -115 357v974h314v-954q0 -146 73.5 -220.5t188.5 -74.5q154 0 225.5 71.5t71.5 209.5v968h313zM926 1917l-301 -299h-207l192 299h316zM1395 1917l-301 -299h-207l192 299h316z
" />
    <glyph glyph-name="uhungarumlaut" unicode="&#x171;" horiz-adv-x="1251" 
d="M1116 1090v-1090h-274v154h-4q-103 -183 -332 -183q-169 0 -270 100.5t-101 301.5v717h287v-676q0 -201 186 -201q39 0 75 12t70.5 38.5t55 77.5t20.5 120v629h287zM811 1536l-301 -299h-207l193 299h315zM1280 1536l-301 -299h-207l193 299h315z" />
    <glyph glyph-name="Uogonek" unicode="&#x172;" horiz-adv-x="1478" 
d="M1065 -317l37 -101q-73 -29 -121 -39t-102 -10q-111 0 -182.5 55t-71.5 136q0 75 38.5 136.5t106.5 102.5l-41 -2q-125 0 -251.5 40t-215.5 138q-109 122 -115 357v974h314v-954q0 -146 73.5 -220.5t188.5 -74.5q154 0 225.5 71.5t71.5 209.5v968h313v-956
q0 -193 -79.5 -317t-233.5 -205q-94 -50 -148.5 -122.5t-54.5 -123.5q0 -47 28.5 -72.5t65.5 -25.5q59 0 154 35z" />
    <glyph glyph-name="uogonek" unicode="&#x173;" horiz-adv-x="1251" 
d="M1059 -317l37 -101q-126 -49 -224 -49q-111 0 -182.5 55t-71.5 136q0 182 224 276v154h-4q-103 -183 -332 -183q-169 0 -270 100.5t-101 301.5v717h287v-676q0 -201 186 -201q39 0 75 12t70.5 38.5t55 77.5t20.5 120v629h287v-1090h-102q-94 -56 -148.5 -129.5
t-54.5 -124.5q0 -47 28.5 -72.5t65.5 -25.5q59 0 154 35z" />
    <glyph glyph-name="Zacute" unicode="&#x179;" horiz-adv-x="1251" 
d="M1200 260v-260h-1149v260l760 950h-739v260h1124v-241l-770 -969h774zM1014 1917l-301 -299h-207l192 299h316z" />
    <glyph glyph-name="zacute" unicode="&#x17a;" horiz-adv-x="1024" 
d="M963 854l-551 -618h571v-236h-942v223l559 637h-520v230h883v-236zM901 1536l-301 -299h-207l193 299h315z" />
    <glyph glyph-name="Zdotaccent" unicode="&#x17b;" horiz-adv-x="1251" 
d="M1200 260v-260h-1149v260l760 950h-739v260h1124v-241l-770 -969h774zM756 1874v-236h-258v236h258z" />
    <glyph glyph-name="zdotaccent" unicode="&#x17c;" horiz-adv-x="1024" 
d="M963 854l-551 -618h571v-236h-942v223l559 637h-520v230h883v-236zM643 1493v-236h-258v236h258z" />
    <glyph glyph-name="Zcaron" unicode="&#x17d;" horiz-adv-x="1251" 
d="M1200 260v-260h-1149v260l760 950h-739v260h1124v-241l-770 -969h774zM987 1917l-233 -299h-256l-234 299h232l129 -168l131 168h231z" />
    <glyph glyph-name="zcaron" unicode="&#x17e;" horiz-adv-x="1024" 
d="M963 854l-551 -618h571v-236h-942v223l559 637h-520v230h883v-236zM874 1536l-233 -299h-256l-233 299h231l129 -168l131 168h231z" />
    <glyph glyph-name="Scommaaccent" unicode="&#x218;" horiz-adv-x="1366" 
d="M80 453h295q1 -29 7 -56.5t26.5 -62t52.5 -59.5t90.5 -42.5t134.5 -17.5q47 0 88 4.5t82.5 18t70.5 34t47.5 55t18.5 79.5q0 34 -14 60t-33.5 43t-58.5 32.5t-71 24t-89 22.5l-158 37q-68 16 -102.5 24.5t-93 28t-89.5 38.5t-71.5 52t-61 71.5t-35 94t-14.5 123.5
q0 56 12.5 110.5t50 118.5t97.5 111.5t165 79.5t241 32q129 0 232 -32.5t165 -82.5t103 -115.5t56.5 -125.5t16.5 -119h-295q-3 28 -8 49t-24.5 56t-49 58t-86.5 40.5t-133 17.5q-64 0 -119 -15.5t-96 -56.5t-41 -104q0 -41 14.5 -70t42 -45t48 -23.5t51.5 -14.5l358 -88
q67 -16 118 -34.5t103.5 -50t86.5 -72t55.5 -101.5t21.5 -138q0 -91 -26 -165.5t-66 -123.5t-96 -86t-108.5 -56.5t-111.5 -31.5t-97.5 -15t-73.5 -3q-111 0 -203.5 18t-156.5 47.5t-113 71t-78 85t-47 93.5t-24.5 92t-6.5 85zM836 -102v-168q0 -80 -77.5 -132.5
t-199.5 -64.5v82q32 6 53.5 11t45 15t36 26t13.5 38h-148v193h277z" />
    <glyph glyph-name="scommaaccent" unicode="&#x219;" 
d="M1030 758h-280q-5 32 -13.5 53t-28 44t-57.5 34.5t-94 11.5q-104 0 -140 -30t-36 -76q0 -30 29.5 -52t77.5 -34t109 -26t125 -26.5t125 -37.5t109 -57.5t77.5 -88t29.5 -127.5q0 -91 -34 -160.5t-84.5 -109t-118 -64.5t-125 -33t-115.5 -8q-100 0 -187 19t-164.5 60
t-124 117.5t-49.5 180.5h295q0 -160 238 -160q98 0 140 36t42 77q0 36 -37.5 60.5t-97 38t-131.5 27t-144 35.5t-131.5 55t-97 93.5t-37.5 143.5q0 51 13 99.5t45 97.5t80.5 85.5t126.5 59t176 22.5q462 0 489 -360zM721 -102v-168q0 -80 -77.5 -132.5t-199.5 -64.5v82
q32 6 53.5 11t45 15t36 26t13.5 38h-148v193h277z" />
    <glyph glyph-name="caron" unicode="&#x2c7;" horiz-adv-x="681" 
d="M702 1536l-233 -299h-256l-233 299h231l129 -168l131 168h231z" />
    <glyph glyph-name="breve" unicode="&#x2d8;" horiz-adv-x="681" 
d="M553 1536h133q-3 -34 -11 -67t-33 -77.5t-62 -76.5t-104 -55t-154 -23q-78 0 -138.5 24t-93.5 57t-55 78t-29.5 77t-9.5 63h135q4 -21 8.5 -35.5t18 -37t33.5 -36t57 -24t86 -10.5q43 0 72 4t62.5 17t55 44t29.5 78z" />
    <glyph glyph-name="dotaccent" unicode="&#x2d9;" horiz-adv-x="681" 
d="M471 1493v-236h-258v236h258z" />
    <glyph glyph-name="ogonek" unicode="&#x2db;" horiz-adv-x="681" 
d="M586 -317l37 -101q-126 -49 -224 -49q-111 0 -182.5 55t-71.5 136q0 94 60.5 166t163.5 110h172v-8q-94 -50 -148.5 -122.5t-54.5 -123.5q0 -47 28.5 -72.5t65.5 -25.5q59 0 154 35z" />
    <glyph glyph-name="hungarumlaut" unicode="&#x2dd;" horiz-adv-x="681" 
d="M526 1536l-301 -299h-207l193 299h315zM995 1536l-301 -299h-207l193 299h315z" />
    <glyph glyph-name="Delta" unicode="&#x394;" horiz-adv-x="1253" 
d="M668 1409l577 -1409h-1233zM594 1059l-447 -959h844z" />
    <glyph glyph-name="Delta" unicode="&#x2206;" horiz-adv-x="1253" 
d="M668 1409l577 -1409h-1233zM594 1059l-447 -959h844z" />
    <glyph glyph-name="endash" unicode="&#x2013;" 
d="M1139 682v-217h-1139v217h1139z" />
    <glyph glyph-name="emdash" unicode="&#x2014;" horiz-adv-x="2048" 
d="M2048 682v-217h-2048v217h2048z" />
    <glyph glyph-name="quoteleft" unicode="&#x2018;" horiz-adv-x="569" 
d="M428 1190v-260h-287v209q0 74 18.5 133t46 95t67.5 62.5t74 38.5t75 21v-105q-39 -12 -67 -29.5t-43.5 -34.5t-25 -41t-12.5 -42.5t-4 -46.5h158z" />
    <glyph glyph-name="quoteright" unicode="&#x2019;" horiz-adv-x="569" 
d="M141 1210v260h287v-208q0 -291 -281 -351v105q39 12 67 29.5t43.5 34.5t25 41t12.5 42.5t4 46.5h-158z" />
    <glyph glyph-name="quotesinglbase" unicode="&#x201a;" horiz-adv-x="569" 
d="M141 0v260h287v-209q0 -74 -18.5 -133t-46 -95t-67.5 -62.5t-74 -38.5t-75 -21v104q48 15 79.5 36.5t46 49t19.5 51t7 58.5h-158z" />
    <glyph glyph-name="quotedblleft" unicode="&#x201c;" horiz-adv-x="1024" 
d="M418 1190v-260h-287v209q0 74 18.5 133t46 95t67.5 62.5t74 38.5t75 21v-105q-39 -12 -67 -29.5t-43.5 -34.5t-25 -41t-12.5 -42.5t-4 -46.5h158zM893 1190v-260h-287v209q0 74 18.5 133t46 95t67.5 62.5t74 38.5t75 21v-105q-39 -12 -67 -29.5t-43.5 -34.5t-25 -41
t-12.5 -42.5t-4 -46.5h158z" />
    <glyph glyph-name="quotedblright" unicode="&#x201d;" horiz-adv-x="1024" 
d="M131 1210v260h287v-208q0 -291 -281 -351v105q39 12 67 29.5t43.5 34.5t25 41t12.5 42.5t4 46.5h-158zM606 1210v260h287v-208q0 -291 -281 -351v105q39 12 67 29.5t43.5 34.5t25 41t12.5 42.5t4 46.5h-158z" />
    <glyph glyph-name="quotedblbase" unicode="&#x201e;" horiz-adv-x="1024" 
d="M131 0v260h287v-209q0 -74 -18.5 -133t-46 -95t-67.5 -62.5t-74 -38.5t-75 -21v104q48 15 79.5 36.5t46 49t19.5 51t7 58.5h-158zM606 0v260h287v-209q0 -74 -18.5 -133t-46 -95t-67.5 -62.5t-74 -38.5t-75 -21v104q48 15 79.5 36.5t46 49t19.5 51t7 58.5h-158z" />
    <glyph glyph-name="dagger" unicode="&#x2020;" 
d="M1065 1022v-229h-358v-1143h-275v1143h-358v229h358v448h275v-448h358z" />
    <glyph glyph-name="daggerdbl" unicode="&#x2021;" 
d="M1065 1042v-229h-360v-489h360v-230h-360v-444h-275v444h-356v230h356v489h-356v229h356v428h275v-428h360z" />
    <glyph glyph-name="bullet" unicode="&#x2022;" horiz-adv-x="716" 
d="M20 737q0 141 98.5 238.5t239.5 97.5q140 0 239 -98t99 -238q0 -142 -99 -241t-239 -99q-142 0 -240 98t-98 242z" />
    <glyph glyph-name="ellipsis" unicode="&#x2026;" horiz-adv-x="2048" 
d="M496 299v-299h-308v299h308zM1178 299v-299h-308v299h308zM1860 299v-299h-308v299h308z" />
    <glyph glyph-name="perthousand" unicode="&#x2030;" horiz-adv-x="2048" 
d="M199 1124q0 -53 36.5 -89t88.5 -36t88.5 36t36.5 89t-36.5 89t-88.5 36t-88.5 -36t-36.5 -89zM-6 1124q0 135 97 232.5t233 97.5q135 0 232 -97.5t97 -232.5t-96.5 -232t-232.5 -97q-137 0 -233.5 96.5t-96.5 232.5zM164 -39l815 1493h151l-815 -1493h-151zM647 305
q0 135 97 232.5t233 97.5q135 0 232.5 -97.5t97.5 -232.5t-97 -232.5t-233 -97.5q-137 0 -233.5 96.5t-96.5 233.5zM852 305q0 -53 36.5 -89t88.5 -36t88.5 36t36.5 89t-36.5 89t-88.5 36t-88.5 -36t-36.5 -89zM1395 305q0 135 96.5 232.5t232.5 97.5q135 0 232.5 -97.5
t97.5 -232.5t-97 -232.5t-233 -97.5t-232.5 96.5t-96.5 233.5zM1599 305q0 -53 36.5 -89t88.5 -36t88.5 36t36.5 89t-36.5 89t-88.5 36t-88.5 -36t-36.5 -89z" />
    <glyph glyph-name="guilsinglleft" unicode="&#x2039;" horiz-adv-x="681" 
d="M512 991v-237l-205 -181l205 -180v-237l-342 295v245z" />
    <glyph glyph-name="guilsinglright" unicode="&#x203a;" horiz-adv-x="681" 
d="M375 573l-205 181v237l342 -295v-245l-342 -295v237z" />
    <glyph glyph-name="Euro" unicode="&#x20ac;" 
d="M1049 1380v-260q-39 39 -110 65.5t-167 26.5q-256 0 -301 -251h512l-65 -191h-472q0 -8 -1 -26t-1 -29q0 -12 1 -35.5t1 -30.5h428l-63 -190h-338q44 -254 301 -254q93 0 163.5 25.5t111.5 64.5v-262q-36 -27 -119 -48.5t-197 -21.5q-455 0 -532 496h-164l65 190h80
q-4 32 -4 64q0 21 4 57h-145l65 191h97q85 493 534 493q104 0 190 -23t126 -51z" />
    <glyph glyph-name="trademark" unicode="&#x2122;" horiz-adv-x="2048" 
d="M1262 1470l192 -512l191 512h313v-843h-217v575h-4l-201 -575h-166l-201 575h-4v-575h-217v843h314zM788 1470v-174h-235v-669h-229v669h-234v174h698z" />
    <glyph glyph-name="partialdiff" unicode="&#x2202;" horiz-adv-x="1011" 
d="M213 1366l-80 102q52 23 84 34.5t89 22.5t120 11q147 0 265 -81t206 -214q40 -60 77.5 -193.5t37.5 -242.5q0 -113 -21.5 -246t-62.5 -223q-57 -123 -135.5 -212.5t-165.5 -125.5q-97 -41 -183 -41q-71 0 -128 12.5t-119 50.5q-73 45 -123.5 133.5t-50.5 198.5
q0 79 19.5 149t37.5 103t47 74q57 82 144 124t188 42q89 0 154 -26t137 -89q10 53 14 193q1 69 -21 168.5t-45 156.5q-20 50 -111 119.5t-161 69.5q-53 0 -102 -17.5t-111 -52.5zM246 303q0 -202 78 -231q76 -27 149 -4q29 12 70.5 63t66.5 105q75 162 115 376
q-97 125 -197 123q-124 -3 -188 -102q-94 -144 -94 -330z" />
    <glyph glyph-name="summation" unicode="&#x2211;" horiz-adv-x="1228" 
d="M1065 1446l10 -272h-35q-10 32 -15.5 47.5t-18.5 30.5t-22 20t-37.5 9.5t-51 4.5h-76.5h-336l414 -532l-479 -541h508q32 0 46.5 0.5t38 2t33.5 5.5t26.5 11t25 18t20.5 27.5t22 37.5t21 50h39q-34 -136 -45.5 -197t-28.5 -188q-12 2 -33.5 7t-33.5 7q-35 6 -66 6h-962
l600 678l-596 768h1032z" />
    <glyph glyph-name="radical" unicode="&#x221a;" horiz-adv-x="1124" 
d="M72 883l-52 104l302 148l292 -605l205 1211l230 -39l-293 -1796l-514 1059z" />
    <glyph glyph-name="notequal" unicode="&#x2260;" horiz-adv-x="1124" 
d="M350 412l123 213h-442v245h583l172 297l213 -123l-100 -174h207v-245h-350l-123 -213h473v-246h-614l-154 -266l-213 123l84 143h-178v246h319z" />
    <glyph glyph-name="lessequal" unicode="&#x2264;" horiz-adv-x="1124" 
d="M59 0v246h1018v-246h-1018zM1077 608v-235l-1018 422v225l1018 422v-236l-721 -299z" />
    <glyph glyph-name="greaterequal" unicode="&#x2265;" horiz-adv-x="1124" 
d="M1071 246v-246h-1018v246h1018zM53 373v235l721 299l-721 299v236l1018 -422v-225z" />
    <glyph glyph-name="lozenge" unicode="&#x25ca;" horiz-adv-x="1011" 
d="M582 0h-152l-410 772l410 754h152l409 -754zM741 772l-235 438l-236 -438l236 -450z" />
    </font>
</defs>
</svg>
